Quick Browse
Movies
TV shows
Music
Games
Applications
Anime
Other
Facebook
Advertising


Follow us on Twitter

Download Firefox

Verified torrent Angry.Games.La.Ragazza.Con.L.Uccello.Di.Fuoco.2013.iTALiAN.MD.BDRip.XviD-BmA.avi


    Seeders : 1      Leechers : 0

Trackers

Tracker NameLast CheckStatusSeedersLeechers
http://tracker.ccc.de/announce7 months agofailed00
http://tracker.torrentbay.to:6969/announce7 months agofailed00
http://tracker.publicbt.com/announce7 months agofailed00
http://tracker.openbittorrent.com/announce7 months agofailed00



Torrent File Content (1 file)


     Angry.Games.La.Ragazza.Con.L.Uccello.Di.Fuoco.2013.iTALiAN.MD.BDRip.XviD-BmA.avi -
1.36 GB



Description



Angry Games La Ragazza Con L'Uccello Di Fuoco (2013) .avi MD BDRip Mp3 - iTA

http://s5.postimg.org/cmugn0fqv/angry.png






USCITA CINEMA: 16/01/2014
GENERE: Commedia, Parodia
REGIA: Jason Friedberg, Aaron Seltzer
SCENEGGIATURA: Jason Friedberg, Aaron Seltzer
ATTORI:
Maiara Walsh, Cody Christian, Brant Daugherty, Alexandria Deberry, Lauren Bowles, Nick Gomez, Joseph Aviel, Jade Roberts, Jason Stanly
Ruoli ed Interpreti

FOTOGRAFIA: Shawn Maurer
MUSICHE: Timothy Wynn
PRODUZIONE: Louisiana Production Consultants, Safran Company
DISTRIBUZIONE: Lucky Red
PAESE: USA 2013
DURATA: 83 Min


In questa parodia di Hunger Games, la protagonista Kantmiss Evershot deve combattere per la sopravvivenza durante i 75° Starving Games ( "starving" vuole dire "morire di fame"). I premi in palio sono un vecchio prosciutto, un buono per un panino e un sottaceto mezzo mangiato. "I Mercenari" e "i Vendicatori" incontrano "Sherlock Holmes" e "Harry Potter" in un esilarante Hunger Game.


http://s5.postimg.org/5enfbgsdz/vlcsnap_2014_01_16_18h44m15s115.png


http://s5.postimg.org/l2omi97zr/vlcsnap_2014_01_16_18h44m41s122.png


http://s5.postimg.org/l2omi97zr/vlcsnap_2014_01_16_18h44m41s122.png


N.F.O
General
Complete name :Angry.Games.La.Ragazza.Con.L.Uccello.Di.Fuoco.2013.iTALiAN.MD.BDRip.XviD-BmA.avi
Format : AVI
Format/Info : Audio Video Interleave
File size : 1.37 GiB
Duration : 1h 22mn
Overall bit rate : 2 383 Kbps
Writing library : VirtualDub build 32842/release

Video
ID : 0
Format : MPEG-4 Visual
Format profile : Advanced Simple@L5
Format settings, BVOP : 2
Format settings, QPel : No
Format settings, GMC : No warppoints
Format settings, Matrix : Default (H.263)
Codec ID : XVID
Codec ID/Hint : XviD
Duration : 1h 22mn
Bit rate : 2 246 Kbps
Width : 720 pixels
Height : 400 pixels
Display aspect ratio : 16:9
Frame rate : 23.976 fps
Color space : YUV
Chroma subsampling : 4:2:0
Bit depth : 8 bits
Scan type : Progressive
Compression mode : Lossy
Bits/(Pixel*Frame) : 0.325
Stream size : 1.29 GiB (94%)
Writing library : XviD 1.2.1 (UTC 2008-12-04)

Audio
ID : 1
Format : MPEG Audio
Format version : Version 1
Format profile : Layer 3
Codec ID : 55
Codec ID/Hint : MP3
Duration : 1h 22mn
Bit rate mode : Constant
Bit rate : 128 Kbps
Channel count : 2 channels
Sampling rate : 48.0 KHz
Compression mode : Lossy
Stream size : 75.3 MiB (5%)
Alignment : Split accross interleaves
Interleave, duration : 42 ms (1.00 video frame)
Interleave, preload duration : 500 ms
Writing library : LAME3.99r
Encoding settings : -m s -V 4 -q 3 -lowpass 17 -b 128



Related torrents

Torrent NameAddedSizeSeedLeechHealth
7 months ago - in Movies1.37 GB150316
7 months ago - in Movies1.37 GB00
7 months ago - in Movies1.37 GB00
Verified torrent
7 months ago - in Movies2.48 GB01



Comments (0 Comments)




Please login or create a FREE account to post comments

Latest Searches

| 2014 Celebrity Nude Photo Hack Collection | rise of the footsoldier 2 | Outlander 2 2014 | Outlander 2 2014 | dvd spanish latino 2010 | SOFCJ Raws Saint Seiya Omega | asl aoi eir | Kashish Bunty | SOFCJ Raws Saint Seiya Omega | Partners 2014 S01E09 720p HDTV X264 DIMENSION |