Quick Browse
Movies
TV shows
Music
Games
Applications
Anime
Other

Donate and Support

Friends
Torrents.me
Torrent Download
Free Movies
1337x
RARBG
Torrent Downloads

[BDRip 720p ITA ENG DTS-AC3-SUB] Il Mondo dei Replicanti-LiFE[ultimafrontiera]


    Seeders : 2      Leechers : 88

Warning! Do not Download Torrents Without a VPN!
Your IP Address is .   And Location is
Your Internet Provider and Government can track your torrent Activity!  Hide your IP ADDRESS with a VPN!
We Strongly Recommend Using SpyOFF Torrent VPN to Anonymize your Torrenting. It's FREE For 15 Days!

Note :

Please Update (Trackers Info) Before Downloading Torrents to See Updated Seeders And Leechers for Batter Download Speed.

Trackers List

Tracker NameLast CheckStatusSeedersLeechers




Torrent File Content (2 files)


[BDRip 720p ITA ENG DTS-AC3-SUB] Il Mondo dei Replicanti-LiFE
     [BDRip 720p ITA ENG DTS-AC3-SUB] Il Mondo dei Replicanti-LiFE.mkv -
7.23 GB

     ilmdr-LiFE.nfo -
5.07 KB



Description



Titolo Originale: Surrogates
Nazionalita : USA
Anno : 2009
Genere : Fantascienza
Durata : 88
Regia : Jonathan Mostow

In un prossimo futuro, il mondo è abitato da esseri umani che vivono in un totale isolamento digitale, una sorta di cyberspazio dove si può interagire con il mondo esterno attraverso dei surrogati, ovvero tramite androidi personali, veri e propri alter ego umanoidi. Un poliziotto, anchegli grazie al suo clone robotico, è sulle tracce di un terrorista tecnologico che sogna un mondo dove gli uomini possano vivere senza i surrogati.

General
Complete name : [BDRip 720p ITA ENG DTS-AC3-SUB] Il Mondo dei Replicanti-LiFE.mkv
Format : Matroska
File size : 7.23 GiB
Duration : 1h 28mn
Overall bit rate : 11.7 Mbps
Encoded date : UTC 2010-02-02 06:45:02
Writing application : mkvmerge v3.0.0 ('Hang up your Hang-Ups') built on Dec 12 2009 19:05:48
Writing library : libebml v0.7.7 + libmatroska v0.8.1

Video
ID : 1
Format : AVC
Format/Info : Advanced Video Codec
Format profile : [email protected]
Format settings, CABAC : Yes
Format settings, ReFrames : 8 frames
Muxing mode : Container [email protected]
Codec ID : V_MPEG4/ISO/AVC
Duration : 1h 28mn
Bit rate : 7 795 Kbps
Nominal bit rate : 8 025 Kbps
Width : 1 280 pixels
Height : 528 pixels
Display aspect ratio : 2.40:1
Frame rate : 23.976 fps
Resolution : 24 bits
Colorimetry : 4:2:0
Scan type : Progressive
Bits/(Pixel*Frame) : 0.481
Stream size : 4.82 GiB (67%)
Writing library : x264 core 65 r998M 6768543
Encoding settings : cabac=1 / ref=8 / deblock=1:-3:-3 / analyse=0x3:0x113 / me=umh / subme=9 / psy_rd=0.8:0.0 / mixed_ref=0 / me_range=32 / chroma_me=1 / trellis=0 / 8x8dct=1 / cqm=0 / deadzone=8,8 / chroma_qp_offset=-2 / threads=6 / nr=0 / decimate=1 / mbaff=0 / bframes=4 / b_pyramid=1 / b_adapt=1 / b_bias=0 / direct=2 / wpredb=1 / keyint=250 / keyint_min=25 / scenecut=40(pre) / rc=2pass / bitrate=8025 / ratetol=1.0 / qcomp=0.60 / qpmin=10 / qpmax=51 / qpstep=4 / cplxblur=20.0 / qblur=0.5 / vbv_maxrate=30000 / vbv_bufsize=38000 / ip_ratio=1.40 / pb_ratio=1.30 / aq=1:0.70

Audio #1
ID : 2
Format : AC-3
Format/Info : Audio Coding 3
Codec ID : A_AC3
Duration : 1h 28mn
Bit rate mode : Constant
Bit rate : 640 Kbps
Channel(s) : 6 channels
Channel positions : Front: L C R, Surround: L R, LFE
Sampling rate : 48.0 KHz
Stream size : 406 MiB (5%)
Language : Italian

Audio #2
ID : 3
Format : DTS
Format/Info : Digital Theater Systems
Codec ID : A_DTS
Duration : 1h 28mn
Bit rate mode : Constant
Bit rate : 1 510 Kbps
Channel(s) : 6 channels
Channel positions : Front: L C R, Surround: L R, LFE
Sampling rate : 48.0 KHz
Resolution : 24 bits
Stream size : 957 MiB (13%)
Title : dts
Language : Italian

Audio #3
ID : 4
Format : DTS
Format/Info : Digital Theater Systems
Codec ID : A_DTS
Duration : 1h 28mn
Bit rate mode : Constant
Bit rate : 1 510 Kbps
Channel(s) : 6 channels
Channel positions : Front: L C R, Surround: L R, LFE
Sampling rate : 48.0 KHz
Resolution : 24 bits
Stream size : 957 MiB (13%)
Title : dts
Language : English

Text #1
ID : 5
Format : UTF-8
Codec ID : S_TEXT/UTF8
Codec ID/Info : UTF-8 Plain Text
Title : Forced
Language : Italian

Text #2
ID : 6
Format : UTF-8
Codec ID : S_TEXT/UTF8
Codec ID/Info : UTF-8 Plain Text
Language : Italian

Text #3
ID : 7
Format : UTF-8
Codec ID : S_TEXT/UTF8
Codec ID/Info : UTF-8 Plain Text
Language : English

http://ufrontiera.altervista.org

Related torrents

Torrent NameAddedSizeSeedLeechHealth
1 Year+ - in Movies5.05 GB03
1 Year+ - in Movies5.16 GB1723
1 Year+ - in Movies10.72 GB517
1 Year+ - in Movies4.38 GB011
1 Year+ - in Movies4.12 GB00

Comments (0 Comments)




Please login or create a FREE account to post comments

Latest Searches

| P6210UBMH1 zto | 2013 bollywood songs | Violent Professionals | JulesJordan Karmen Karma Wet Ass Devours A Cock | worth it flac | JUNGLE FUNK 3 | aircrack linux | Aa Megami sama Movie | Windows 10 May 2017 Multi | Wanted 2009 Movie Hindi |