Quick Browse
Movies
TV shows
Music
Games
Applications
Anime
Other
Facebook
Advertising

Friends
Torrent Download
Movie4u
1337x.to
Torrent Downloads




[BDRip 720p ITA ENG FRA ESP POL-AC3 SUB] The Quiet-LiFE [ultimafrontiera]


    Seeders : 0      Leechers : 5

Trackers List

Tracker NameLast CheckStatusSeedersLeechers




Torrent File Content (2 files)


[BDRip 720p ITA ENG FRA ESP POL-AC3 SUB] The Quiet-LiFE
     TQ-LiFE.nfo -
4.48 KB

     [BDRip 720p ITA ENG FRA ESP POL-AC3 SUB] The Quiet-LiFE.mkv -
3.82 GB



Description



Titolo Originale: The Quiet
Nazionalita : USA
Anno : 2006
Genere : Thriller
Durata : 96
Regia : Jamie Babbit

Dot non sente e non parla, e in più ha appena perso entrambi i genitori. Viene affidata ai ricchi coniugi Deer, presso i quali instaura un rapporto inizialmente conflittuale e poi quasi complice con la bella e spregiudicata figlia Nina. Entrambe le fanciulle nascondono infatti terribili verità...

Dimensione: 4.0 gb
Formato Video: mkv
Formato Audio: AC3 5.1
Lingua: Italiano/Inglese/Francese/Spagnolo/Polacco
Sottotitoli: Idem

General
Complete name : D:RAWTHE QUIET[BDRip 720p ITA ENG FRA ESP POL-AC3 SUB] The Quiet-LiFE.mkv
Format : Matroska
File size : 3.82 GiB
Duration : 1h 32mn
Overall bit rate : 5 918 Kbps
Encoded date : UTC 2002-01-01 05:55:14
Writing application : mkvmerge v2.5.1 ('He Wasn't There') built on Feb 22 2009 18:19:47
Writing library : libebml v0.7.7 + libmatroska v0.8.1

Video
ID : 1
Format : AVC
Format/Info : Advanced Video Codec
Format profile : [email protected]
Format settings, CABAC : Yes
Format settings, ReFrames : 6 frames
Muxing mode : Container [email protected]
Codec ID : V_MPEG4/ISO/AVC
Duration : 1h 32mn
Bit rate : 3 944 Kbps
Nominal bit rate : 4 065 Kbps
Width : 1 280 pixels
Height : 544 pixels
Display aspect ratio : 2.35:1
Frame rate : 25.000 fps
Resolution : 24 bits
Colorimetry : 4:2:0
Scan type : Progressive
Bits/(Pixel*Frame) : 0.227
Stream size : 2.54 GiB (67%)
Title : The Quiet (2005)
Writing library : x264 core 60 r877M c74a8e2
Encoding settings : cabac=1 / ref=6 / deblock=1:-2:-1 / analyse=0x3:0x113 / me=umh / subme=7 / me-prepass=1 / brdo=1 / mixed_ref=1 / me_range=24 / chroma_me=1 / trellis=0 / 8x8dct=1 / cqm=2 / deadzone=6,4 / chroma_qp_offset=0 / threads=3 / nr=0 / decimate=1 / mbaff=0 / fgo=6 / bframes=16 / b_pyramid=1 / b_adapt=1 / b_bias=0 / direct=1 / wpredb=1 / bime=1 / keyint=250 / keyint_min=25 / scenecut=40(pre) / rc=2pass / bitrate=4065 / ratetol=1.0 / rceq='blurCplx^(1-qComp)' / qcomp=1.00 / qpmin=10 / qpmax=51 / qpstep=4 / cplxblur=20.0 / qblur=0.5 / ip_ratio=1.40 / pb_ratio=1.18 / aq=2:1.00
Language : English

Audio #1
ID : 2
Format : AC-3
Format/Info : Audio Coding 3
Codec ID : A_AC3
Duration : 1h 32mn
Bit rate mode : Constant
Bit rate : 448 Kbps
Channel(s) : 6 channels
Channel positions : Front: L C R, Surround: L R, LFE
Sampling rate : 48.0 KHz
Video delay : 2ms
Stream size : 296 MiB (8%)
Language : Italian

Audio #2
ID : 3
Format : AC-3
Format/Info : Audio Coding 3
Codec ID : A_AC3
Duration : 1h 32mn
Bit rate mode : Constant
Bit rate : 448 Kbps
Channel(s) : 6 channels
Channel positions : Front: L C R, Surround: L R, LFE
Sampling rate : 48.0 KHz
Stream size : 296 MiB (8%)
Language : English

Audio #3
ID : 4
Format : AC-3
Format/Info : Audio Coding 3
Codec ID : A_AC3
Duration : 1h 32mn
Bit rate mode : Constant
Bit rate : 384 Kbps
Channel(s) : 6 channels
Channel positions : Front: L C R, Surround: L R, LFE
Sampling rate : 48.0 KHz
Video delay : 2ms
Stream size : 254 MiB (6%)
Language : French

Audio #4
ID : 5
Format : AC-3
Format/Info : Audio Coding 3
Codec ID : A_AC3
Duration : 1h 32mn
Bit rate mode : Constant
Bit rate : 384 Kbps
Channel(s) : 6 channels
Channel positions : Front: L C R, Surround: L R, LFE
Sampling rate : 48.0 KHz
Video delay : 2ms
Stream size : 254 MiB (6%)
Language : Spanish

Audio #5
ID : 6
Format : AC-3
Format/Info : Audio Coding 3
Format profile : Dolby Digital
Codec ID : A_AC3
Duration : 1h 32mn
Bit rate mode : Constant
Bit rate : 192 Kbps
Channel(s) : 2 channels
Channel positions : L R
Sampling rate : 48.0 KHz
Video delay : 2ms
Stream size : 127 MiB (3%)
Language : Polish

Text #1
ID : 7
Format : UTF-8
Codec ID : S_TEXT/UTF8
Codec ID/Info : UTF-8 Plain Text
Language : English

Text #2
ID : 8
Format : UTF-8
Codec ID : S_TEXT/UTF8
Codec ID/Info : UTF-8 Plain Text
Language : Italian

Text #3
ID : 9
Format : UTF-8
Codec ID : S_TEXT/UTF8
Codec ID/Info : UTF-8 Plain Text
Language : French

Text #4
ID : 10
Format : UTF-8
Codec ID : S_TEXT/UTF8
Codec ID/Info : UTF-8 Plain Text
Language : Spanish

Text #5
ID : 11
Format : UTF-8
Codec ID : S_TEXT/UTF8
Codec ID/Info : UTF-8 Plain Text
Language : Polish

http://ufrontiera.altervista.org

Related torrents

Torrent NameAddedSizeSeedLeechHealth
1 Year+ - in Movies4.67 GB213
1 Year+ - in Movies4.25 GB774
1 Year+ - in Movies4.68 GB00
1 Year+ - in Movies6.9 GB621
1 Year+ - in Movies5.7 GB745

Comments (0 Comments)




Please login or create a FREE account to post comments

Latest Searches

| The Hooters | Nancy A Rebecca Volpetti | kt christmas | Leona LEwis Christmas Album | SapphicErotica Nancy A Rebecca Volpetti | Lynda Cert Prep Certified Professional | selena mur slip into selena | MAGIX SAMPLITUDE MUSIC STUDIO 2017 | stay macklemore | Lynda Cert Prep Certified Professional |