Quick Browse
Movies
TV shows
Music
Games
Applications
Anime
Other
Facebook
Advertising

Friends
Torrent Download
Movie4u
1337x.to
Torrent Downloads




[Mp3 - V(0) Vbr] Sonata Arctica - Unia [2007] [tntvillage]


    Seeders : 0      Leechers : 25
Hash :C80799C1875B4814713966870E7DC1103C194398
Added :1 Year+ in Music - Music
Size :120.81 MB
Stream :WATCH ONLINE @ Movie4u


[Mp3 - V(0) Vbr] Sonata Arctica - Unia [2007] [tntvillage]
Free and Fast Download with Usenet 300GB+ free







Trackers List

Tracker NameLast CheckStatusSeedersLeechers




Torrent File Content (13 files)


Sonata Arctica - Unia
     01 - In Black and White.mp3 -
10.07 MB

     02 - Paid in Full.mp3 -
9.06 MB

     03 - For the Sake of Revenge.mp3 -
6.55 MB

     04 - It Won't Fade.mp3 -
11.95 MB

     05 - Under Your Tree.mp3 -
10.62 MB

     06 - Caleb.mp3 -
12.3 MB

     07 - The Vice.mp3 -
8.32 MB

     08 - My Dream's but a Drop of Fuel for a Nightmare.mp3 -
11.82 MB

     09 - The Harvest.mp3 -
8.14 MB

     10 - The Worlds Forgotten, the Words Forbidden.mp3 -
5.53 MB

     11 - Fly with the Black Swan.mp3 -
10.14 MB

     12 - Good Enough Is Good Enough.mp3 -
7.21 MB

     13 - Out in the Fields.mp3 -
9.11 MB



Description



Sonata Arctica - Unia [2007]
Tracklist:

01 - In Black And White (05:03)
02 - Paid In Full (04:24)
03 - For The Sake Of Revenge (03:23)
04 - It Won't Fade (05:58)
05 - Under Your Tree (05:14)
06 - Caleb (06:16)
07 - The Vice (04:08)
08 - My Dream's But A Drop Of Fuel For A Nightmare (06:13)
09 - The Harvest (04:21)
10 - The Worlds Forgotten, The Words Forbidden (02:57)
11 - Fly With The Black Swan (05:08)
12 - Good Enough Is Good Enough (05:30)
13 - Out in the Fields (Gary Moore cover) (04:06)


Exact Audio Copy V0.99 prebeta 3 from 28. July 2007

EAC extraction logfile from 10. February 2008, 19:25

Sonata Arctica / Unia

Used drive : LITE-ON DVD SOHD-167T Adapter: 3 ID: 0

Read mode : Secure
Utilize accurate stream : Yes
Defeat audio cache : Yes
Make use of C2 pointers : Yes

Read offset correction : 12
Overread into Lead-In and Lead-Out : No
Fill up missing offset samples with silence : Yes
Delete leading and trailing silent blocks : No
Null samples used in CRC calculations : No
Used interface : Installed external ASPI interface
Gap handling : Appended to previous track

Used output format : User Defined Encoder
Selected bitrate : 192 kBit/s
Quality : High
Add ID3 tag : Yes
Command line compressor : C:LAMELAME.EXE
Additional command line options : -V 0 --vbr-new --add-id3v2 --ignore-tag-errors --ta "%a" --tt "%t" --tg "%m" --tl "%g" --ty "%y" --tn "%n" %s %d


TOC of the extracted CD

Track | Start | Length | Start sector | End sector
---------------------------------------------------------
1 | 0:00.00 | 5:03.66 | 0 | 22790
2 | 5:03.66 | 4:24.26 | 22791 | 42616
3 | 9:28.17 | 3:23.00 | 42617 | 57841
4 | 12:51.17 | 5:58.34 | 57842 | 84725
5 | 18:49.51 | 5:14.09 | 84726 | 108284
6 | 24:03.60 | 6:16.47 | 108285 | 136531
7 | 30:20.32 | 4:08.61 | 136532 | 155192
8 | 34:29.18 | 6:13.22 | 155193 | 183189
9 | 40:42.40 | 4:18.69 | 183190 | 202608
10 | 45:01.34 | 2:57.21 | 202609 | 215904
11 | 47:58.55 | 5:08.27 | 215905 | 239031
12 | 53:07.07 | 4:38.18 | 239032 | 259899
13 | 57:45.25 | 4:57.21 | 259900 | 282195


Track 1

Filename D:RipsSonata Arctica - Unia1 - In Black and White.wav

Pre-gap length 0:00:02.00

Peak level 98.8 %
Track quality 100.0 %
Test CRC C34C3588
Copy CRC C34C3588
Accurately ripped (confidence 6) [932BB1D6]
Copy OK

Track 2

Filename D:RipsSonata Arctica - Unia2 - Paid in Full.wav

Peak level 98.8 %
Track quality 99.9 %
Test CRC BADC6E53
Copy CRC BADC6E53
Accurately ripped (confidence 6) [1C44B369]
Copy OK

Track 3

Filename D:RipsSonata Arctica - Unia3 - For the Sake of Revenge.wav

Peak level 98.8 %
Track quality 100.0 %
Test CRC 8D70703F
Copy CRC 8D70703F
Accurately ripped (confidence 6) [CF526E8B]
Copy OK

Track 4

Filename D:RipsSonata Arctica - Unia4 - It Won't Fade.wav

Peak level 98.8 %
Track quality 100.0 %
Test CRC D50073C5
Copy CRC D50073C5
Accurately ripped (confidence 6) [1D290D86]
Copy OK

Track 5

Filename D:RipsSonata Arctica - Unia5 - Under Your Tree.wav

Peak level 98.8 %
Track quality 100.0 %
Test CRC F7A2392E
Copy CRC F7A2392E
Accurately ripped (confidence 6) [D771AECF]
Copy OK

Track 6

Filename D:RipsSonata Arctica - Unia6 - Caleb.wav

Peak level 98.8 %
Track quality 100.0 %
Test CRC EA0972F1
Copy CRC EA0972F1
Accurately ripped (confidence 5) [83FCA645]
Copy OK

Track 7

Filename D:RipsSonata Arctica - Unia7 - The Vice.wav

Peak level 98.8 %
Track quality 100.0 %
Test CRC 7D1C54F6
Copy CRC 7D1C54F6
Accurately ripped (confidence 5) [2C4CC26A]
Copy OK

Track 8

Filename D:RipsSonata Arctica - Unia8 - My Dream's but a Drop of Fuel for a Nightmare.wav

Peak level 98.8 %
Track quality 100.0 %
Test CRC B5F82AB5
Copy CRC B5F82AB5
Accurately ripped (confidence 5) [ADEDB5D3]
Copy OK

Track 9

Filename D:RipsSonata Arctica - Unia9 - The Harvest.wav

Peak level 98.8 %
Track quality 100.0 %
Test CRC 0A8B5B97
Copy CRC 0A8B5B97
Accurately ripped (confidence 5) [B953B307]
Copy OK

Track 10

Filename D:RipsSonata Arctica - Unia10 - The Worlds Forgotten, the Words Forbidden.wav

Peak level 98.8 %
Track quality 100.0 %
Test CRC 6ECC32B7
Copy CRC 6ECC32B7
Accurately ripped (confidence 5) [3C3CAC0F]
Copy OK

Track 11

Filename D:RipsSonata Arctica - Unia11 - Fly with the Black Swan.wav

Peak level 98.8 %
Track quality 100.0 %
Test CRC 6CEC0839
Copy CRC 6CEC0839
Accurately ripped (confidence 5) [9B7CB8DC]
Copy OK

Track 12

Filename D:RipsSonata Arctica - Unia12 - Good Enough Is Good Enough.wav

Peak level 98.8 %
Track quality 99.9 %
Test CRC 88C18153
Copy CRC 88C18153
Accurately ripped (confidence 5) [E157FE7F]
Copy OK

Track 13

Filename D:RipsSonata Arctica - Unia13 - Out in the Fields.wav

Peak level 98.8 %
Track quality 100.0 %
Test CRC 97628952
Copy CRC 64A1F9B6
Cannot be verified as accurate (confidence 5) [84E93AC1], AccurateRip returned [70E401FE]
Copy OK


12 track(s) accurately ripped
1 track(s) could not be verified as accurate

Some tracks could not be verified as accurate

No errors occurred

End of status report

Related torrents

Torrent NameAddedSizeSeedLeechHealth
1 Year+ - in Music90.95 MB1211
1 Year+ - in Music90.98 MB00
Last Month - in Music151.41 MB1269
2 months ago - in Music142.53 MB00
1 Year+ - in Music152.1 MB00

Comments (0 Comments)




Please login or create a FREE account to post comments

Latest Searches

| ElectroSluts 16 09 22 Daisy Ducati Eliza Jane And Bella Rossi XXX | Little girls video | Roxy Dee legal 4on1 | speedtree tree | de la joie | billboard top 20 mainstream rock songs 12 20 2014 | rb58 jack | 80s compilations | mamp pro 4 0 6 mac | A Z Just give me |