Quick Browse
Movies
TV shows
Music
Games
Applications
Anime
Other
Facebook
Advertising

Friends
Torrent Download
Movie4u
1337x.to
Torrent Downloads




Verified torrent [TrTd_CREW]Fatal-Reunion 2010-AC3-DvDrip-ITA.avi.torrent


    Seeders : 34      Leechers : 88
Hash :11FA950D02CAA6B1CAE7C4866D740CA0E234112F
Added :1 Year+ by torrentedVerified torrent uploader in Movies
Size :700.96 MB
Stream :WATCH ONLINE @ Movie4u


[TrTd_CREW]Fatal-Reunion 2010-AC3-DvDrip-ITA.avi.torrent
Free and Fast Download with Usenet 300GB+ free







Trackers List

Tracker NameLast CheckStatusSeedersLeechers




Torrent File Content (1 file)


     [TrTd_CREW]Fatal-Reunion 2010-AC3-DvDrip-ITA.avi -
700.96 MB



Description



http://www.torrented.org/public/phpbb3/images/presenta.png

Fatal-Reunion
http://img27.imageshack.us/i/newprojectxa.png/


http://www.torrented.org/public/phpbb3/images/screenshot.png

http://img64.imageshack.us/i/fataln.jpg/


[quote]General
Complete name : [TrTd_CREW]Fatal-Reunion 2010-AC3-DvDrip-ITA.avi
Format : AVI
Format/Info : Audio Video Interleave
File size : 701 MiB
Duration : 1h 23mn
Overall bit rate : 1 175 Kbps
Writing application : Lavf52.101.0
[color=red]Copyright : www.torrented.org[/color]

Video
ID : 0
Format : MPEG-4 Visual
Format settings, BVOP : Yes
Format settings, QPel : No
Format settings, GMC : No warppoints
Format settings, Matrix : Default (H.263)
Muxing mode : Packed bitstream
Codec ID : DIVX
Codec ID/Info : Project Mayo
Codec ID/Hint : DivX 4
Duration : 1h 23mn
Bit rate : 780 Kbps
Width : 624 pixels
Height : 288 pixels
Display aspect ratio : 3.152
Frame rate : 25.000 fps
Resolution : 24 bits
Colorimetry : 4:2:0
Scan type : Progressive
Bits/(Pixel*Frame) : 0.174
Stream size : 465 MiB (66%)
Writing library : DivX 6.8.4

Audio
ID : 1
Format : AC-3
Format/Info : Audio Coding 3
Codec ID : 2000
Duration : 1h 23mn
Bit rate mode : Constant
Bit rate : 384 Kbps
Channel(s) : 2 channels
Channel positions : L R
Sampling rate : 48.0 KHz
Resolution : 16 bits
Stream size : 229 MiB (33%)
Alignment : Aligned on interleaves
Interleave, duration : 32 ms (0.80 video frame)[/quote]

Related torrents

Torrent NameAddedSizeSeedLeechHealth
1 Year+ - in Movies710.6 MB11
1 Year+ - in Movies708.66 MB10
7 months ago - in Other4.37 GB10
1 Year+ - in Movies615.67 MB00
1 Year+ - in Movies664.88 MB00

Comments (0 Comments)




Please login or create a FREE account to post comments

Latest Searches

| alicia keysunplugged | ef a tale of melodies 06 | Jackass The Movie Tom Green | Boozemunkee Amateur XXX Pics | cute teen suck | Powrot do przyszoci | baby one more time Britney Spears | ultimate Spider Man | false l | kick ass dual audio hindi eng |