Quick Browse
Movies
TV shows
Music
Games
Applications
Anime
Other
Facebook
Advertising

Friends
Torrent Download
Movie4u
1337x.to
Torrent Downloads




Verified torrent 100 Feet


    Seeders : 1      Leechers : 23
Hash :B5A459D873B4D2E52634C5520807E8FCB4F36ACD
Added :1 Year+ by HannspreeVerified torrent uploader in Movies
Size :1.31 GB
Stream :WATCH ONLINE @ Movie4u


100 Feet
Free and Fast Download with Usenet 300GB+ free







Trackers List

Tracker NameLast CheckStatusSeedersLeechers




Torrent File Content (8 files)


100 Feet
    VIDEO_TS
          VIDEO_TS.BUP -
12 KB

          VIDEO_TS.IFO -
12 KB

          VIDEO_TS.VOB -
58 KB

          VTS_01_0.BUP -
68 KB

          VTS_01_0.IFO -
68 KB

          VTS_01_0.VOB -
60 KB

          VTS_01_1.VOB -
1023.97 MB

          VTS_01_2.VOB -
315.75 MB



Description



===============================================================================================
MOVIE TITLE: 100 Feet
LANGUAGE: English
MOVIE SUBS: No - (subtitles if/when required)
===============================================================================================
MOVIE DESC:

After seven years and fifty-two days in prison, Marnie Watson returns to her old house in Brooklyn, New York, under the
house arrest condition for the next six months. Marnie was sentenced for killing her abusive and brutal husband, the
policeman Mike Watson, in self-defense and she must wear an electronic brace around her ankle that allows her to
move in a 100-foot radius in the house during her probation.

Mike's former partner Shanks takes Marnie under his custody, stalking her from his car, expecting her to violate the limits
of the electronic device and send her back to prison. Sooner Marnie discovers that she is trapped in the house with the
ghost of Mike that has not moved on and is still in the house seeking revenge against her.
===============================================================================================
MOVIE SPECS:

GENERAL:
Complete name : 100 Feet
Format : MPEG-PS
File size : 1.30 GB
Duration : 97 Minutes
Overall bit rate : 1 845 Kbps

VIDEO:
ID : 224 (0xE0)
Format : MPEG Video
Format version : Version 2
Format profile : [email protected]
Format settings, BVOP : Yes
Format settings, Matrix : Default
Duration : 97 Minutes
Bit rate mode : Variable
Bit rate : 1 616 Kbps
Nominal bit rate : 9 608 Kbps
Width : 720 pixels
Height : 576 pixels
Display aspect ratio : 16:9
Frame rate : 24.000 fps
Standard : PAL
Color space : YUV
Chroma subsampling : 4:2:0
Bit depth : 8 bits
Scan type : Progressive
Scan order : 2:2:2:2:2:2:2:2:2:2:2:3 Pulldown
Bits/(Pixel*Frame) : 0.162
Stream size : 897 MiB (88%)

AUDIO:
ID : 128 (0x80)
Format : AC-3
Format/Info : Audio Coding 3
Mode extension : CM (complete main)
Duration : 97 Minutes
Bit rate mode : Constant
Bit rate : 192 Kbps
Channel(s) : 2 channels
Channel positions : Front: L R
Sampling rate : 48.0 KHz
Stream size : 107 MiB (10%)
===============================================================================================

Related torrents

Torrent NameAddedSizeSeedLeechHealth
1 Year+ - in Movies7.95 GB00
1 Year+ - in Movies1.45 GB00
1 Year+ - in Movies2.19 GB28
8 months ago - in Other1.17 GB00
8 months ago - in Other1.84 GB00
8 months ago - in Movies1.22 GB00

Comments (0 Comments)




Please login or create a FREE account to post comments

Latest Searches

| Worldmark Encyclopedia of National Economies | Wannabe Model Cheats On Boyfriend Publicagent Wannabe Model Cheats On Boyfriend | disc 1 bugs bunny masterpieces | hot and mean Sharing the Siblings | the flash complete season 1 3 | Chicago I flac | an orie | Ariana Grande Dangerous Dangerous | The Walking Dead S07E07 HDTV | Vegas 1x06 |