Quick Browse
Movies
TV shows
Music
Games
Applications
Anime
Other
Facebook
Advertising

Friends
Torrent Download
Movie4u
1337x.to
Torrent Downloads




Verified torrent 11-11-11 2011 DVDRip XVID AC3 UNE-CM8


    Seeders : 1      Leechers : 24
Hash :114193BBF844264BED6B705F2AD0B6E67EBFB7A3
Added :1 Year+ by chrisowenloveVerified torrent uploader in Movies
Size :1.27 GB
Stream :WATCH ONLINE @ Movie4u


11-11-11 2011 DVDRip XVID AC3 UNE-CM8
Free and Fast Download with Usenet 300GB+ free







Trackers List

Tracker NameLast CheckStatusSeedersLeechers




Torrent File Content (6 files)


11-11-11.2011.DVDRip.XVID.AC3.UNE-CM8
    /Torrent downloaded from AhaShare.com.txt
          /Torrent downloaded from AhaShare.com.txt -
59 bytes

    /Torrent downloaded from Demonoid.me.txt
          /Torrent downloaded from Demonoid.me.txt -
46 bytes

    /Torrent Downloaded from Limetorrents.com.txt
          /Torrent Downloaded from Limetorrents.com.txt -
46 bytes

    /Torrent Downloaded From ExtraTorrent.com.txt
          /Torrent Downloaded From ExtraTorrent.com.txt -
353 bytes

    /11-11-11.2011.DVDRip.XVID.AC3.UNE-CM8.nfo
          /11-11-11.2011.DVDRip.XVID.AC3.UNE-CM8.nfo -
3.54 KB

    /11-11-11.2011.DVDRip.XVID.AC3.UNE-CM8.avi
          /11-11-11.2011.DVDRip.XVID.AC3.UNE-CM8.avi -
1.27 GB



Description



CM8 Doing It Right The First Time
http://pix2links.com/image/7ye4h.jpg


[code]
Source: DVD5 Thx
Video: 720x304 @bitrate 1497 2pass
Audio: English AC3 5.1 @448 Kbps
http://www.imdb.com/title/tt1712159/

General

Format : AVI
Format/Info : Audio Video Interleave
Format profile : OpenDML
File size : 1.27 GiB
Duration : 1h 33mn
Overall bit rate : 1 950 Kbps
Writing library : MPlayer

Video
ID : 0
Format : MPEG-4 Visual
Format profile : Advanced [email protected]
Format settings, BVOP : No
Format settings, QPel : No
Format settings, GMC : No warppoints
Format settings, Matrix : Custom
Codec ID : XVID
Codec ID/Hint : XviD
Duration : 1h 33mn
Bit rate : 1 497 Kbps
Width : 720 pixels
Height : 304 pixels
Display aspect ratio : 2.35:1
Frame rate : 25.000 fps
Color space : YUV
Chroma subsampling : 4:2:0
Bit depth : 8 bits
Scan type : Progressive
Compression mode : Lossy
Bits/(Pixel*Frame) : 0.273
Stream size : 997 MiB (77%)
Writing library : XviD 1.2.1 (UTC 2008-12-04)

Audio
ID : 1
Format : AC-3
Format/Info : Audio Coding 3
Mode extension : CM (complete main)
Codec ID : 2000
Duration : 1h 32mn
Bit rate mode : Constant
Bit rate : 448 Kbps
Channel(s) : 6 channels
Channel positions : Front: L C R, Side: L R, LFE
Sampling rate : 48.0 KHz
Bit depth : 16 bits
Compression mode : Lossy
Stream size : 298 MiB (23%)
Alignment : Split accross interleaves
Interleave, duration : 501 ms (12.53 video frames)
Interleave, preload duration : 500 ms

[/code]

http://static.iptorrents.com/ipt/pic/plot.png

Plot:
After his death of his wife and child, an author travels to Barcelona to see his estranged brother and dying father, where he learns that his life is plagued by events that occur on 11/11/11.

http://static.iptorrents.com/ipt/pic/cast.png

Cast:
Timothy Gibbs ... Joseph Crone
Michael Landes ... Samuel
Denis Rafter ... Richard Crone
Wendy Glenn ... Sadie

Related torrents

Torrent NameAddedSizeSeedLeechHealth
1 Year+ - in Movies1.27 GB13
Verified torrent
1 Year+ - in Movies843.87 MB56
Verified torrent
1 Year+ - in Movies1.27 GB45689
1 Year+ - in Movies1.27 GB01
1 Year+ - in Movies1.27 GB1129

Comments (0 Comments)




Please login or create a FREE account to post comments

Latest Searches

| stitch by | fat m | coldplay star mark | not a girl not yet a woman | bad moms 720p brrip 900mb mkvcage mkv | top 1 ebooks | Sexxxy Fiz 18 e Quero Dar 4 Cena 03 | superfoods recipes | she s like fire | x Y speed of sound coldplay |