Quick Browse
Movies
TV shows
Music
Games
Applications
Anime
Other
Facebook
Advertising

Friends
Torrent Download
Movie4u
1337x.to
Torrent Downloads




Verified torrent 13Hrs 2010 DVDR-*THC*


    Seeders : 7      Leechers : 3
Hash :50315E2C34B73B17F821291591896F2B8C3F0186
Added :1 Year+ by striker123Verified torrent uploader in Movies
Size :3.86 GB
Stream :WATCH ONLINE @ Movie4u


13Hrs 2010 DVDR-*THC*
Free and Fast Download with Usenet 300GB+ free







Trackers List

Tracker NameLast CheckStatusSeedersLeechers




Torrent File Content (8 files)


13Hrs 2010 DVD-R -THC
    VIDEO_TS
          VTS_01_3.VOB -
1024 MB

          VTS_01_1.VOB -
1024 MB

          VTS_01_2.VOB -
1024 MB

          VTS_01_4.VOB -
878.72 MB

          VTS_01_0.IFO -
56 KB

          VTS_01_0.BUP -
56 KB

          VIDEO_TS.IFO -
6 KB

          VIDEO_TS.BUP -
6 KB



Description



http://www.traileraddict.com/content/unknown/13hrs.jpg



[code]
General
Complete name : C:\Documents and Settings\Home\Desktop\13HRS DVDR \VTS_01_2.VOB
Format : MPEG-PS
Format : MPEG-PS
File size : 1 024 MiB
Duration : 23mn 11s
Overall bit rate : 6 171 Kbps

Video
ID : 224 (0xE0)
Format : MPEG Video
Format version : Version 2
Format profile : [email protected]
Format settings, BVOP : Yes
Format settings, Matrix : Default
Format_Settings_GOP : M=3, N=12
Duration : 23mn 11s
Bit rate mode : Variable
Bit rate : 5 286 Kbps
Nominal bit rate : 9 800 Kbps
Width : 720 pixels
Height : 576 pixels
Display aspect ratio : 16:9
Frame rate : 25.000 fps
Standard : PAL
Resolution : 8 bits
Colorimetry : 4:2:0
Scan type : Progressive
Scan order : Top Field First
Bits/(Pixel*Frame) : 0.510
Stream size : 877 MiB (86%)

Audio #1
ID : 128 (0x80)
Format : AC-3
Format/Info : Audio Coding 3
Duration : 23mn 11s
Bit rate mode : Constant
Bit rate : 192 Kbps
Channel(s) : 2 channels
Channel positions : L R
Sampling rate : 48.0 KHz
Video delay : -448ms
Stream size : 31.9 MiB (3%)

Audio #2
ID : 129 (0x81)
Format : AC-3
Format/Info : Audio Coding 3
Duration : 23mn 11s
Bit rate mode : Constant
Bit rate : 448 Kbps
Channel(s) : 6 channels
Channel positions : Front: L C R, Surround: L R, LFE
Sampling rate : 48.0 KHz
Video delay : -512ms
Stream size : 74.3 MiB (7%)


Imdb Link:http://www.imdb.com/title/tt1411232/


Gemma Atkinson ... Emily
Joshua Bowman ... Doug Walker
Isabella Calthorpe ... Sarah Tyler
Cornelius Clarke ... May
Anthony Di Liseo ... Luke
Tom Felton ... Gary
Peter Gadiot ... Stephen Moore
John Lynch ... McRae
Louisa Lytton ... Holly
Simon MacCorkindale ... Duncan


Sarah Tyler returns to her troubled family home in the isolated countryside,
for a much put-off visit. As a storm rages outside, Sarah, her family and
friends shore up for the night, cut off from the outside world. But something
comes out of the driving rain and darkness. Something that holds a dark
secret so devastating that, in one night, it could wipe out the entire family.



[/code]


http://img222.imageshack.us/img222/9467/vlcsnap2010102608h50m58.png

http://img200.imageshack.us/img200/5290/vlcsnap2010102608h51m51.png

http://img535.imageshack.us/img535/206/vlcsnap2010102608h54m29.png

http://img835.imageshack.us/img835/238/vlcsnap2010102608h56m48.png



Related torrents

Torrent NameAddedSizeSeedLeechHealth
1 Comments
1 Good
Verified torrent
1 Year+ - in Movies704.1 MB58262
1 Year+ - in Movies691.49 MB180
1 Year+ - in Movies690.94 MB00
1 Year+ - in Movies700.02 MB00
Verified torrent
1 Year+ - in Movies648.16 MB117

Comments (0 Comments)




Please login or create a FREE account to post comments

Latest Searches

| Gucci Mane The State V | t i lilwayne | empire s 1 e01 | KarupsHA 16 03 19 Brooke Lynn Santos Solo 3 720p MP4 KTR | charlie brookers weekly wipe s02e02 hdtv x264 c4tv eztv | miranda lambert feat carrie | michael lewis 2016 | empire body | Healer 2014 2015 | Clips4sale Mrs |