Quick Browse
Movies
TV shows
Music
Games
Applications
Anime
Other
Facebook
Advertising

Friends
Torrent Download
Movie4u
1337x.to
Torrent Downloads




Verified torrent 1408


    Seeders : 1      Leechers : 14
Hash :8F948AC9FFB5DAECD62C663E575ABB0D9F2469DF
Added :1 Year+ by HannspreeVerified torrent uploader in Movies
Size :1.65 GB
Stream :WATCH ONLINE @ Movie4u


1408
Free and Fast Download with Usenet 300GB+ free







Trackers List

Tracker NameLast CheckStatusSeedersLeechers




Torrent File Content (6 files)


1408
    VIDEO_TS
          VIDEO_TS.BUP -
6 KB

          VIDEO_TS.IFO -
6 KB

          VTS_01_0.BUP -
68 KB

          VTS_01_0.IFO -
68 KB

          VTS_01_1.VOB -
1023.97 MB

          VTS_01_2.VOB -
668.75 MB



Description



===============================================================================================
MOVIE TITLE: 1408
LANGUAGE: English
MOVIE SUBS: No - (subtitles if/when required)
===============================================================================================
MOVIE DESC:

Based on the short Stephen King horror story of the same name, 1408 is about supernatural writer Mike Enslin, an author of
two successful books on supernatural phenomena. As research for his latest book, Enslin is determined to check out the notorious
room 1408 in a New York City hotel by personally staying as a guest in the fabled room. He believes that 1408 is just a myth
perpetuated by stories and rumors that Enslin has collected for his past works.

However, hotel manager Mr. Olin has strong objections to Enslin's stay and only warns him of possible danger to come. Enslin
is determined to go anyway. But what Mike Enslin is about to experience is no myth, as 1408 truly is a room where the
guests don't check out by noon.
===============================================================================================
MOVIE SPECS:

GENERAL:
Complete name : 1408
File size : 1.65 GB
Duration : 105 Minutes
Overall bit rate : 2 244 Kbps

VIDEO:
ID : 224 (0xE0)
Format : MPEG Video
Format version : Version 2
Format profile : [email protected]
Format settings, BVOP : Yes
Format settings, Matrix : Default
Duration : 105 Minutes
Bit rate mode : Variable
Bit rate : 2 007 Kbps
Nominal bit rate : 8 808 Kbps
Width : 720 pixels
Height : 576 pixels
Display aspect ratio : 16:9
Frame rate : 24.000 fps
Standard : PAL
Color space : YUV
Chroma subsampling : 4:2:0
Bit depth : 8 bits
Scan type : Progressive
Scan order : 2:2:2:2:2:2:2:2:2:2:2:3 Pulldown
Bits/(Pixel*Frame) : 0.202
Stream size : 916 MiB (89%)

AUDIO:
ID : 128 (0x80)
Format : AC-3
Format/Info : Audio Coding 3
Mode extension : CM (complete main)
Duration : 105 Minutes
Bit rate mode : Constant
Bit rate : 192 Kbps
Channel(s) : 2 channels
Channel positions : Front: L R
Sampling rate : 48.0 KHz
Stream size : 87.6 MiB (9%)
===============================================================================================

Related torrents

Torrent NameAddedSizeSeedLeechHealth
Last Month - in Other45.2 MB00
Last Month - in Movies2.35 GB1955
1 Year+ - in Movies3.84 GB113
1 Year+ - in Movies4.37 GB111
1 Year+ - in Movies1.46 GB127
1 Year+ - in Movies744.95 MB00

Comments (0 Comments)




Please login or create a FREE account to post comments

Latest Searches

| Spring Break 1983 480p x264 mSD | tokyo ghoul complete sub | Travelers 2016 | sharing the room | the colbert report 2014 07 14 jad abumrad hdtv x264 lmao eztv | floriani control u | Acoustic 2016 flac | f u s full album | poeta chino i nacho | insane ingenues pretty dirty |