Quick Browse
Movies
TV shows
Music
Games
Applications
Anime
Other

Donate and Support

Friends
Torrents.me
Torrent Download
Free Movies
1337x
RARBG
Torrent Downloads

Verified torrent 1973 Badlands DVD {{4HRG}} Minstrel


    Seeders : 1      Leechers : 3
Hash :28212837366D52B388036E7355709B3167971A6B
Added :1 Year+ by minstrelVerified torrent uploader in Movies
Size :1.25 GB
Stream :Watch Full Movies Online @ Movie4u
Share :


1973 Badlands DVD {{4HRG}} Minstrel
Anonymous and free Direct Download







Warning! Do not Download Torrents Without a VPN!
Your IP Address is .   And Location is
Your Internet Provider and Government can track your torrent Activity!  Hide your IP ADDRESS with a VPN!
We Strongly Recommend Using SpyOFF Torrent VPN to Anonymize your Torrenting. It's FREE For 15 Days!

Note :

Please Update (Trackers Info) Before Downloading Torrents to See Updated Seeders And Leechers for Batter Download Speed.

Trackers List

Tracker NameLast CheckStatusSeedersLeechers




Torrent File Content (4 files)


1973 Badlands DVD {{4HRG}} Minstrel
    Badlands 1973 DVD 720p h264
          Badlands 1973 DVD 720p h264.mp4 -
1.25 GB

    Screens
          Badlands 1973 DVD 720p h264.mp4_thumbs_[2012.12.16_17.27.25].png -
759.04 KB

    Cover
          Badlands (1973).jpg -
54.01 KB

    Info
          Badlands 1973 DVD 720p h264.mp4.txt -
4.92 KB



Description



General Information

Complete name : Badlands 1973 DVD 720p h264.mp4
Format : MPEG-4
Format profile : Base Media / Version 2
Codec ID : mp42
File size : 1.25 GiB
Duration : 1h 33mn
Overall bit rate : 1 903 Kbps
Writing application : HandBrake 0.9.5 2011010300

Video
ID : 1
Format : AVC
Format/Info : Advanced Video Codec
Format profile : [email protected]
Format settings, CABAC : Yes
Format settings, ReFrames : 4 frames
Format settings, GOP : M=1, N=52
Codec ID : avc1
Codec ID/Info : Advanced Video Coding
Duration : 1h 33mn
Bit rate mode : Variable
Bit rate : 1 738 Kbps
Width : 720 pixels
Height : 400 pixels
Display aspect ratio : 1.850
Frame rate mode : Variable
Frame rate : 23.976 fps
Minimum frame rate : 23.419 fps
Maximum frame rate : 24.390 fps
Color space : YUV
Chroma subsampling : 4:2:0
Bit depth : 8 bits
Scan type : Progressive
Bits/(Pixel*Frame) : 0.252
Stream size : 1.14 GiB (91%)
Writing library : x264 core 112


Audio
ID : 2
Format : AAC
Format/Info : Advanced Audio Codec
Format profile : LC
Codec ID : 40
Duration : 1h 33mn
Bit rate mode : Variable
Bit rate : 160 Kbps
Maximum bit rate : 214 Kbps
Channel(s) : 2 channels
Channel positions : Front: L R
Sampling rate : 48.0 KHz
Compression mode : Lossy
Stream size : 107 MiB (8%)
Language : English

Related torrents

Torrent NameAddedSizeSeedLeechHealth
Verified torrent
1 Year+ - in Movies701.24 MB12
1 Year+ - in Movies598.98 MB00
Verified torrent
1 Year+ - in Movies1000.81 MB12
1 Year+ - in Movies699.78 MB18
1 Year+ - in Movies27.07 GB00

Comments (0 Comments)




Please login or create a FREE account to post comments

Latest Searches

| Timon Pumbaa season | Tushy Kimberly Brix Sexy Redhead Tries Double Penetration mp4s | stephen king the dark tower book 9 | www TamilMV io Sarrainodu 2 | the final countdown 720p 1980 | lana rainnier | xed2k | The Walking Dead S06E08 Start To Finish 1080p AAC5 1 Web Dl x265 HEVC MEANDRAGON | nina elle teacher 2 | the maze runner dual a |