Quick Browse
Movies
TV shows
Music
Games
Applications
Anime
Other
Facebook
Advertising

Friends
Torrent Download
Movie4u
1337x.to
Torrent Downloads




Verified torrent 1974 The California Kid DVD {{4HRG}} Minstrel


    Seeders : 1      Leechers : 2
Hash :26B807C20AC7D572926AC68FF25E76D2834A7998
Added :1 Year+ by minstrelVerified torrent uploader in Movies
Size :701.24 MB
Stream :WATCH ONLINE @ Movie4u


1974 The California Kid DVD {{4HRG}} Minstrel
Free and Fast Download with Usenet 300GB+ free







Trackers List

Tracker NameLast CheckStatusSeedersLeechers




Torrent File Content (4 files)


1974 The California Kid DVD {{4HRG}} Minstrel
    The California Kid 1974 DVD
          The California Kid 1974 DVD.avi -
700.19 MB

    Screens
          The California Kid 1974 DVD.avi_thumbs_[2012.12.16_17.29.45].png -
1013.4 KB

    Cover
          the-california-kid-1974-r1-front-cover-72265.jpg -
56.18 KB

    Info
          The California Kid 1974 DVD.avi.txt -
5.15 KB



Description




General Information

Complete name : The California Kid 1974 DVD.avi
Format : AVI
Format/Info : Audio Video Interleave
File size : 700 MiB
Duration : 1h 13mn
Overall bit rate : 1 326 Kbps
Writing application : VirtualDubMod 1.5.4.1 (build 2178/release)
Writing library : VirtualDubMod build 2178/release

Video
ID : 0
Format : MPEG-4 Visual
Format profile : Advanced [email protected]
Format settings, BVOP : 1
Format settings, QPel : No
Format settings, GMC : No warppoints
Format settings, Matrix : Custom
Codec ID : XVID
Codec ID/Hint : XviD
Duration : 1h 13mn
Bit rate : 1 194 Kbps
Width : 512 pixels
Height : 384 pixels
Display aspect ratio : 4:3
Frame rate : 23.976 fps
Color space : YUV
Chroma subsampling : 4:2:0
Bit depth : 8 bits
Scan type : Progressive
Compression mode : Lossy
Bits/(Pixel*Frame) : 0.253
Stream size : 631 MiB (90%)
Writing library : XviD 1.2.0.dev47 (UTC 2006-11-01)

Audio
ID : 1
Format : MPEG Audio
Format version : Version 1
Format profile : Layer 3
Mode : Joint stereo
Mode extension : MS Stereo
Codec ID : 55
Codec ID/Hint : MP3
Duration : 1h 13mn
Bit rate mode : Variable
Bit rate : 119 Kbps
Nominal bit rate : 144 Kbps
Channel(s) : 2 channels
Sampling rate : 48.0 KHz
Compression mode : Lossy
Stream size : 62.8 MiB (9%)
Alignment : Aligned on interleaves
Interleave, duration : 24 ms (0.58 video frame)
Interleave, preload duration : 591 ms
Writing library : LAME3.97






Related torrents

Torrent NameAddedSizeSeedLeechHealth
Verified torrent
1 Year+ - in Movies1.25 GB13
1 Year+ - in TV shows4.01 GB00
1 Year+ - in Movies700.6 MB114
1 Year+ - in Movies921.38 MB184150
1 Year+ - in Movies2.91 GB13

Comments (0 Comments)




Please login or create a FREE account to post comments

Latest Searches

| english grammar and punctuation guide ever | hippie parents | lyra rq | tori wells | One Piece TV 001 580 OVA MOVIE 01 11 RAW Compilation SuGaRx | for shes a lady | jade jantzen taboo by primal | copper caddy | Bankroll fresh i | lil corridos |