Quick Browse
Movies
TV shows
Music
Games
Applications
Anime
Other
Facebook
Advertising

Friends
Torrent Download
Movie4u
1337x.to
Torrent Downloads




Verified torrent 1979 Apocalypse Now BDVD 720p x264 {{4HRG}} Minstrel


    Seeders : 1      Leechers : 2
Hash :157B80D88990B7CC9381B2A3CC8776A60B8F4454
Added :1 Year+ by minstrelVerified torrent uploader in Movies
Size :1000.81 MB
Stream :WATCH ONLINE @ Movie4u


1979 Apocalypse Now BDVD 720p x264 {{4HRG}} Minstrel
Free and Fast Download with Usenet 300GB+ free







Trackers List

Tracker NameLast CheckStatusSeedersLeechers




Torrent File Content (4 files)


1979 Apocalypse Now BDVD 720p x264 {{4HRG}} Minstrel
    1979 Apocalypse Now BDVD 720p x264
          1979 Apocalypse Now BDVD 720p x264.mp4 -
999.68 MB

    Cover
          Apocalypse Now Poster.jpg -
605.76 KB

    Screens
          1979 Apocalypse Now BDVD 720p x264.mp4_thumbs_[2012.12.16_17.31.26].png -
546.25 KB

    info
          1979 Apocalypse Now BDVD 720p x264.mp4.txt -
4.43 KB



Description



General Information

Complete name : 1979 Apocalypse Now BDVD 720p x264.mp4
Format : MPEG-4
Format profile : Base Media
Codec ID : isom
File size : 1 000 MiB
Duration : 2h 27mn
Overall bit rate : 949 Kbps


Video
ID : 1
Format : AVC
Format/Info : Advanced Video Codec
Format profile : [email protected]
Format settings, CABAC : Yes
Format settings, ReFrames : 4 frames
Codec ID : avc1
Codec ID/Info : Advanced Video Coding
Duration : 2h 27mn
Bit rate : 817 Kbps
Maximum bit rate : 5 140 Kbps
Width : 1 280 pixels
Height : 544 pixels
Display aspect ratio : 2.35:1
Frame rate mode : Constant
Frame rate : 23.976 fps
Color space : YUV
Chroma subsampling : 4:2:0
Bit depth : 8 bits
Scan type : Progressive
Bits/(Pixel*Frame) : 0.049
Stream size : 861 MiB (86%)
Title : Imported with GPAC 0.4.6-DEV (build 1)
Writing library : x264 core 92 r1510 33d382a


Audio
ID : 2
Format : AAC
Format/Info : Advanced Audio Codec
Format profile : LC
Codec ID : 40
Duration : 2h 27mn
Bit rate mode : Variable
Bit rate : 128 Kbps
Maximum bit rate : 179 Kbps
Channel(s) : 2 channels
Channel positions : Front: L R
Sampling rate : 48.0 KHz
Compression mode : Lossy
Stream size : 135 MiB (13%)



Related torrents

Torrent NameAddedSizeSeedLeechHealth
1 Year+ - in Movies1.31 GB06
1 Year+ - in Movies2.91 GB13
1 Year+ - in Movies2.91 GB23
Verified torrent
1 Year+ - in Movies544.3 MB11
2 months ago - in Movies1.63 GB00

Comments (0 Comments)




Please login or create a FREE account to post comments

Latest Searches

| hits techno 90 s | the bourne identity english subs | bbc world news 2016 05 09 eng subs sdtv x264 2maverick | go radio | nudes for | 3 0 0 crack stinger | hot blonde amateur | ebony suck | 16 jaguars | a daughters wish |