Quick Browse
Movies
TV shows
Music
Games
Applications
Anime
Other
Facebook
Advertising

Friends
Torrent Download
Movie4u
1337x.to
Torrent Downloads




2 Become 1 - 2006 - Honk Kong Movie - TVRip - WS - XViD-Greekadiko.biz - English Subtitles


    Seeders : 0      Leechers : 0

Trackers List

Tracker NameLast CheckStatusSeedersLeechers




Torrent File Content (7 files)


2 Become 1
     2 Become 1.avi -
849.99 MB

     poster.png -
289.25 KB

     2 Become 1_4.jpg -
31.83 KB

     2 Become 1_2.jpg -
24.09 KB

     2 Become 1_3.jpg -
21.61 KB

     2 Become 1_1.jpg -
14.51 KB

     2 Become 1.jpg -
11.5 KB



Description



General
Complete name : 2 Become 1.avi
Format : AVI
Format/Info : Audio Video Interleave
File size : 850 MiB
Duration : 1h 33mn
Overall bit rate : 1 276 Kbps
Writing application : VirtualDubMod 1.5.4.1 (build 2178/release)
Writing library : VirtualDubMod build 2178/release

Video
ID : 0
Format : MPEG-4 Visual
Format profile : Streaming [email protected]
Format settings, BVOP : Yes
Format settings, QPel : No
Format settings, GMC : No warppoints
Format settings, Matrix : Default (H.263)
Muxing mode : Packed bitstream
Codec ID : XVID
Codec ID/Hint : XviD
Duration : 1h 33mn
Bit rate : 1 086 Kbps
Width : 720 pixels
Height : 352 pixels
Display aspect ratio : 2.045
Frame rate : 29.970 fps
Resolution : 24 bits
Colorimetry : 4:2:0
Scan type : Progressive
Bits/(Pixel*Frame) : 0.143
Stream size : 723 MiB (85%)
Writing library : XviD 1.2.1 (UTC 2008-12-04)

Audio
ID : 1
Format : MPEG Audio
Format version : Version 1
Format profile : Layer 3
Codec ID : 55
Codec ID/Hint : MP3
Duration : 1h 33mn
Bit rate mode : Variable
Bit rate : 176 Kbps
Nominal bit rate : 192 Kbps
Channel(s) : 2 channels
Sampling rate : 48.0 KHz
Resolution : 16 bits
Stream size : 117 MiB (14%)
Alignment : Aligned on interleaves
Interleave, duration : 24 ms (0.72 video frame)
Interleave, preload duration : 487 ms
Writing library : LAME3.98r
Encoding settings : -m j -V 4 -q 2 -lowpass 18.6 --abr 192

Related torrents

Torrent NameAddedSizeSeedLeechHealth
1 Year+ - in Movies843.13 MB01
1 Year+ - in Movies750.47 MB00
1 Year+ - in Movies371.06 MB00
1 Year+ - in Movies739.46 MB11
1 Year+ - in Movies676.86 MB10

Comments (0 Comments)




Please login or create a FREE account to post comments

Latest Searches

| t i young thug offset | jal jal k dhuan | the mask jyk | download GTA Vice City | adriana noir sinister kisses skals azw3 | Dc a Live 1992 | Ultimate X Men 2000 1 | bloodrayne 3 game | the text message | pdf to accounting |