Quick Browse
Movies
TV shows
Music
Games
Applications
Anime
Other
Facebook
Advertising

Friends
Torrent Download
Movie4u
1337x.to
Torrent Downloads




Verified torrent 30 Minutes Or Less 2011 R5 READNFO XVID - ILLUMINATI


    Seeders : 1      Leechers : 1
Hash :AD9EB2AEDFDD8CF77144FCAC581C1770E045024E
Added :1 Year+ by memory100Verified torrent uploader in Movies
Size :1.22 GB
Stream :WATCH ONLINE @ Movie4u


30 Minutes Or Less 2011 R5 READNFO XVID - ILLUMINATI
Free and Fast Download with Usenet 300GB+ free







Trackers List

Tracker NameLast CheckStatusSeedersLeechers




Torrent File Content (8 files)


30 Minutes Or Less 2011 R5 READNFO XVID - ILLUMINATI
     30 Minutes Or Less 2011 R5 READNFO XVID - ILLUMINATI.avi -
1.19 GB

     30 Minutes Or Less 2011 R5 READNFO XVID - ILLUMINATI.nfo -
3.42 KB

     HDSceneRG.txt -
115 bytes

     Torrent downloaded from Demonoid.me.txt -
46 bytes

     Torrent downloaded from Suprnova.me.txt -
42 bytes

     att-networks.com.txt -
39 bytes

     sample.avi -
26.17 MB

     sceneunderground.org.txt -
77 bytes



Description



http://img231.imageshack.us/img231/7247/30mins.jpg

[code]
30 Minutes Or Less 2011 R5 READNFO XVID - ILLUMINATI


http://www.imdb.com/title/tt1622547/

Plot:
Two fledgling criminals kidnap a pizza delivery guy, strap a
bomb to his chest, and inform him that he has mere hours to rob
a bank or else...

Sources:
Video - Russians - Many Thanks
Audio - - Many Thanks

Info:

Video:
Format : AVI
Format/Info : Audio Video Interleave
File size : 1.19 GiB
Duration : 1h 19mn
Overall bit rate : 2 137 Kbps
Writing application : VirtualDubMod 1.5.4.1 (build 2178/release)
Writing library : VirtualDub build 30586/release

ID : 0
Format : MPEG-4 Visual
Format profile : Advanced [email protected]
Format settings, BVOP : 2
Format settings, QPel : No
Format settings, GMC : No warppoints
Format settings, Matrix : Custom
Codec ID : XVID
Codec ID/Hint : XviD
Duration : 1h 19mn
Bit rate : 2 000 Kbps
Width : 720 pixels
Height : 304 pixels
Display aspect ratio : 2.35:1
Frame rate : 25.000 fps
Color space : YUV
Chroma subsampling : 4:2:0
Bit depth : 8 bits
Scan type : Progressive
Compression mode : Lossy
Bits/(Pixel*Frame) : 0.365
Stream size : 1.11 GiB (94%)
Writing library : XviD 58

Audio:
ID : 1
Format : MPEG Audio
Format version : Version 1
Format profile : Layer 3
Mode : Joint stereo
Mode extension : MS Stereo
Codec ID : 55
Codec ID/Hint : MP3
Duration : 1h 19mn
Bit rate mode : Constant
Bit rate : 128 Kbps
Channel(s) : 2 channels
Sampling rate : 44.1 KHz
Compression mode : Lossy
Stream size : 73.0 MiB (6%)
Alignment : Split accross interleaves
Interleave, duration : 40 ms (1.00 video frame)
Writing library : LAME3.98r
Encoding settings : -m j -V 4 -q 2 -lowpass 17 -b 128


Release Notes:
Ok here we are with our R5 release of 30 minutes or less as the russian source
from the cam was missing we saved our audio for a day like this
we havnt cut out the 1st minute and we never needed to make 3 cuts where other
encoders had to racing to put this out first

audio is cam but is listenable cam and goes nice to the release hence the readnfo
check sample before d/l and await the re-encodes
[/code]
Screens:
http://img850.imageshack.us/img850/5821/52749018.png

http://img845.imageshack.us/img845/5183/92312233.png

http://img805.imageshack.us/img805/345/71873587.png

http://img703.imageshack.us/img703/240/61515760.png


Related torrents

Torrent NameAddedSizeSeedLeechHealth
1 Year+ - in Movies1.22 GB00
1 Year+ - in Movies1.22 GB10
1 Year+ - in Movies1.22 GB014
1 Year+ - in Movies1.22 GB156
1 Year+ - in Movies1.22 GB110

Comments (0 Comments)




Please login or create a FREE account to post comments

Latest Searches

| brain hormones | big tits at school corinna blake brazzers | cinemax chemistry | secrets and lies 2016 1080p web | Ashes Cricket 2009 New Kits | Chelsea Marie Britney Boykins | elm street rarbg 1080p | det 2015 | White Girl 2016 HDRip XviD AC3 iFTPRiME | Dirt Rally |