Quick Browse
Movies
TV shows
Music
Games
Applications
Anime
Other
Facebook
Advertising

Friends
Torrent Download
Movie4u
1337x.to
Torrent Downloads




Verified torrent 300 Hindi Dubbed~DVDRIP~Striker~TDA


    Seeders : 1      Leechers : 2
Hash :F411873E73D8DCA5D4E080056430518D50BE19DD
Added :1 Year+ by striker123Verified torrent uploader in Movies
Size :800.67 MB
Stream :WATCH ONLINE @ Movie4u


300 Hindi Dubbed~DVDRIP~Striker~TDA
Free and Fast Download with Usenet 300GB+ free







Trackers List

Tracker NameLast CheckStatusSeedersLeechers
udp://tracker.openbittorrent.com:80/announce1 Year+success12
udp://open.demonii.com:1337/announce1 Year+success00




Torrent File Content (4 files)


300 Hindi Dubbed~DVDRIP~Striker~TDA
     300 Hindi Dubbed~DVDRIP~Striker~TDA.avi -
800 MB

     TeamTDA.jpg -
681.47 KB

     More Movies.url -
112 bytes

     Tracked By DesiAdda.com.txt -
23 bytes



Description



http://www.imagefreeks.com/images/striker/300.png


http://www.imagefreeks.com/images/striker/eamtdabanner.jpg


http://www.imagefreeks.com/images/striker/ileinfo.png


[CODE]
General

Format : MPEG-PS
File size : 800 MiB
Duration : 1h 42mn
Overall bit rate : 1 096 Kbps

Video
ID : 224 (0xE0)
Format : MPEG Video
Format version : Version 2
Format settings, Matrix : Default
Duration : 1h 42mn
Bit rate mode : Constant
Bit rate : 828 Kbps
Nominal bit rate : 1 150 Kbps
Width : 352 pixels
Height : 288 pixels
Display aspect ratio : 1.222
Frame rate : 25.000 fps
Scan type : Progressive
Bits/(Pixel*Frame) : 0.327
Stream size : 605 MiB (76%)

Audio
ID : 192 (0xC0)
Format : MPEG Audio
Format version : Version 1
Format profile : Layer 2
Duration : 1h 42mn
Bit rate mode : Constant
Bit rate : 224 Kbps
Channel(s) : 2 channels
Sampling rate : 48.0 KHz
Resolution : 16 bits
Stream size : 164 MiB (20%)

[/CODE]

http://www.imagefreeks.com/images/striker/screens.png


http://www.imagefreeks.com/images/striker/300hindidubbeddvdripstrikertda.jpg


http://www.imagefreeks.com/images/striker/ownload.png

Related torrents

Torrent NameAddedSizeSeedLeechHealth
Verified torrent
1 Year+ - in Movies1.37 GB04
1 Year+ - in Movies1.28 GB526
1 Year+ - in Movies2.06 GB154
1 Year+ - in Movies300.37 MB10
1 Year+ - in Movies494.02 MB84

Comments (0 Comments)




Please login or create a FREE account to post comments

Latest Searches

| Shake Your Groove Thing Peaches Herb | DClario christine | dragon ball super ep 1 15 | obrother flac | sidharth malhotra galliyan | private super hardcore asses 2016 split scenes | spongebob 036 | full tilt poker latest full gaming software | clean flac | Dark Injections DVDRip x264 MrsPalmer |