Quick Browse
Movies
TV shows
Music
Games
Applications
Anime
Other

Latest Articles

Friends
Torrents.me
Torrent Download
Free Movies
1337x
RARBG
Torrent Downloads

Verified torrent 300 Hindi Dubbed~DVDRIP~Striker~TDA


    Seeders : 1      Leechers : 2

Hash :F411873E73D8DCA5D4E080056430518D50BE19DD
Added :1 Year+ by striker123Verified torrent uploader in Movies
Size :800.67 MB
Stream :Watch Online Full Movie @ Movie4u
Share :


300 Hindi Dubbed~DVDRIP~Striker~TDA
Download Direct And Anonymously







Warning! Do not Download Torrents Without a VPN!
Your IP Address is .   And Location is
Your Internet Provider and Government can track your torrent Activity!  Hide your IP ADDRESS with a VPN!
We Strongly Recommend Using SpyOFF Torrent VPN to Anonymize your Torrenting. It's FREE for 15 Days!

Note :

Please Update (Trackers Info) Before Downloading Torrents to See Updated Seeders And Leechers for Batter Download Speed.

Trackers List

Tracker NameLast CheckStatusSeedersLeechers
udp://tracker.openbittorrent.com:80/announce1 Year+success12
udp://open.demonii.com:1337/announce1 Year+success00




Torrent File Content (4 files)


300 Hindi Dubbed~DVDRIP~Striker~TDA
     300 Hindi Dubbed~DVDRIP~Striker~TDA.avi -
800 MB

     TeamTDA.jpg -
681.47 KB

     More Movies.url -
112 bytes

     Tracked By DesiAdda.com.txt -
23 bytes



Description



http://www.imagefreeks.com/images/striker/300.png


http://www.imagefreeks.com/images/striker/eamtdabanner.jpg


http://www.imagefreeks.com/images/striker/ileinfo.png


[CODE]
General

Format : MPEG-PS
File size : 800 MiB
Duration : 1h 42mn
Overall bit rate : 1 096 Kbps

Video
ID : 224 (0xE0)
Format : MPEG Video
Format version : Version 2
Format settings, Matrix : Default
Duration : 1h 42mn
Bit rate mode : Constant
Bit rate : 828 Kbps
Nominal bit rate : 1 150 Kbps
Width : 352 pixels
Height : 288 pixels
Display aspect ratio : 1.222
Frame rate : 25.000 fps
Scan type : Progressive
Bits/(Pixel*Frame) : 0.327
Stream size : 605 MiB (76%)

Audio
ID : 192 (0xC0)
Format : MPEG Audio
Format version : Version 1
Format profile : Layer 2
Duration : 1h 42mn
Bit rate mode : Constant
Bit rate : 224 Kbps
Channel(s) : 2 channels
Sampling rate : 48.0 KHz
Resolution : 16 bits
Stream size : 164 MiB (20%)

[/CODE]

http://www.imagefreeks.com/images/striker/screens.png


http://www.imagefreeks.com/images/striker/300hindidubbeddvdripstrikertda.jpg


http://www.imagefreeks.com/images/striker/ownload.png

Related torrents

Torrent NameAddedSizeSeedLeechHealth
Verified torrent
1 Year+ - in Movies1.37 GB04
1 Year+ - in Movies1.28 GB526
3 months ago - in Other702.4 MB00
1 Year+ - in Movies2.06 GB154
1 Year+ - in Movies300.37 MB10

Note :

Feel free to post any comments about this torrent, including links to Subtitle, samples, screenshots, or any other relevant information. Please Dont Download anything from Comments, And Dont Post Links to Streaming Sites like Fmovies, Xmovies8, 123Movies, GoMovies, CMovieshd, Solarmovie, Watchfree, Putlockers, GoStream, m4ufree etc.

Comments (0 Comments)




Please login or create a FREE account to post comments

Latest Searches

| murder murder | monica rina | Midnight Texas S01E02 WEBRip x264 | Inheritance 2017 DVDRip x264 RedBlade | julia kim | ci fi 5 | forced cum in mouth | daz3d poser renderotica sku29516 davo s dunget set 9 slave yokes | amber deen milf | story of a murderer 1080p |