Quick Browse
Movies
TV shows
Music
Games
Applications
Anime
Other
Facebook
Advertising

Friends
Torrent Download
Movie4u
1337x.to
Torrent Downloads




A.Dangerous.Man.2010.DVDRip.XviD-LUMiX NORARS


    Seeders : 41      Leechers : 19
Hash :652FC0CE0D773BFB3B27EC976342DACA5568E1A2
Added :1 Year+ in Movies
Size :709.04 MB
Stream :WATCH ONLINE @ Movie4u


A.Dangerous.Man.2010.DVDRip.XviD-LUMiX NORARS
Free and Fast Download with Usenet 300GB+ free







Trackers List

Tracker NameLast CheckStatusSeedersLeechers




Torrent File Content (2 files)


A Dangerous Man 2010 DVD www.IWANNADOWNLOAD.com
     A.Dangerous.Man2010.DVD.www.IWANNADOWNLOAD.com.avi -
700.95 MB

     sample-xvid-dman.avi -
8.09 MB



Description



Video Sample:
http://www.movshare.net/video/6y2ii3quhhylr

http://imdb.com/title/tt1360767/

http://lookpic.com/i/821/y57LU1HE.png

http://lookpic.com/i/101/NOWT5bbB.png

http://lookpic.com/i/831/GshDuLIO.png


Format : AVI
Format/Info : Audio Video Interleave
File size : 701 MiB
Duration : 1h 30mn
Overall bit rate : 1 082 Kbps
Writing application : VirtualDubMod 1.5.10.2 (build 2540/release)
Writing library : VirtualDubMod build 2540/release

Video
ID : 0
Format : MPEG-4 Visual
Format profile : [email protected]
Format settings, BVOP : Yes
Format settings, QPel : No
Format settings, GMC : No warppoints
Format settings, Matrix : Default (H.263)
Codec ID : XVID
Codec ID/Hint : XviD
Duration : 1h 30mn
Bit rate : 909 Kbps
Width : 640 pixels
Height : 336 pixels
Display aspect ratio : 1.905
Frame rate : 25.000 fps
Resolution : 24 bits
Colorimetry : 4:2:0
Scan type : Progressive
Bits/(Pixel*Frame) : 0.169
Stream size : 588 MiB (84%)
Writing library : XviD 1.2.1 (UTC 2008-12-04)

Audio
ID : 1
Format : MPEG Audio
Format version : Version 1
Format profile : Layer 3
Format_Settings_Mode : Joint stereo / MS Stereo
Codec ID : 55
Codec ID/Hint : MP3
Duration : 1h 30mn
Bit rate mode : Variable
Bit rate : 161 Kbps
Nominal bit rate : 160 Kbps
Channel(s) : 2 channels
Sampling rate : 48.0 KHz
Resolution : 16 bits
Stream size : 104 MiB (15%)
Alignment : Aligned on interleaves
Interleave, duration : 24 ms (0.60 video frame)
Interleave, preload duration : 308 ms
Writing library : LAME3.90.
Encoding settings : -m j -V 4 -q 2 -lowpass 18 --abr 160

Related torrents

Torrent NameAddedSizeSeedLeechHealth
1 Year+ - in Movies715.17 MB2018
1 Year+ - in Movies700.95 MB200146
1 Year+ - in Movies870.5 MB51
1 Year+ - in Movies701.33 MB4217
1 Year+ - in Movies67.01 KB00

Comments (0 Comments)




Please login or create a FREE account to post comments

Latest Searches

| BigWetButts Paige Turnah Proper English Ass XXX 264 | banshee s01 repack | allied 720p brrip x264 aac evrg | banco cio che si vede e | Thunder Force Crusade 2016 ak192 | U Roy mix | PC World USA Windows 10s Next Big Reveal January 2015 | grey s anatomy vtv | Quantico XviD FUM ettv | big magic elizabeth gilbert |