Quick Browse
Movies
TV shows
Music
Games
Applications
Anime
Other
Facebook
Advertising

Friends
Torrent Download
Movie4u
1337x.to
Torrent Downloads




A Tale Of Two Sisters - South Korea Film - 2003 - TVRip - WS - XViD-Greekadiko.biz Release - English Subtitles


    Seeders : 2      Leechers : 1

Trackers List

Tracker NameLast CheckStatusSeedersLeechers




Torrent File Content (6 files)


A Tale Of Two Sisters
     A Tale Of Two Sisters.avi -
699.6 MB

     A Tale Of Two Sisters_1.jpg -
30.26 KB

     A Tale Of Two Sisters_2.jpg -
19.08 KB

     A Tale Of Two Sisters.jpg -
18.36 KB

     A Tale Of Two Sisters_3.jpg -
14.64 KB

     poster.jpg -
6.19 KB



Description



Director/Writer: Ji-woon Kim
Release Date: 13 June 2003 (South Korea)
Release Group: greekadiko.biz
Genre: Drama | Horror | Mystery | Thriller
Runtime: Korea => 115 min
Language: Korean
Subtitles: English
Awards: 12 wins & 3 nominations




User Comments:

A Tale of Two Sisters, or Janghwa, Hongryeon, is a true masterpiece. Brilliant psychological thriller, heart-wrenching drama, and gripping horror all wrapped up in one beautifully orchestrated package. From the intricate plot, to the beautiful cinematography, to the absolutely perfect casting, every aspect of this film is extraordinary.

For fear of revealing too much concerning the plot, I will just say it is very satisfying. While it may appear to be a little difficult to understand at first, it does a good job of explaining things in the end. And whether you prefer psychological thriller, drama, or horror, I promise you will not be disappointed.

From a technical standpoint, its nearly flawless. The set, the cinematography, lighting, and especially the soundtrack, all are captivating. The waltz seemed an odd choice at first, but proved to be an ingenious choice.

As for the casting, we're talking absolute perfection. I'm Su-jeong is totally convincing as the defiant, yet troubled Su-mi. Mun Keun- yeong is equally convincing as her emotionally traumatized sister Su-yeon. These two girls were magical on the screen. I will certainly be looking into their other films. Yeom Jeong-ah is deceitfully cheerful and hauntingly evil as the stepmother. Finally, Kap-su Kim gives an excellent performance as the weary, broken father.

I truly love this film. If you have yet to see 'A Tale Of Two Sisters', I strongly recommend locating a copy. It is a real gem, worthy of anyone's collection.



General
Complete name : A Tale Of Two Sisters.avi
Format : AVI
Format/Info : Audio Video Interleave
File size : 700 MiB
Duration : 1h 45mn
Overall bit rate : 929 Kbps
Writing application : VirtualDubMod 1.5.4.1 (build 2178/release)
Writing library : VirtualDubMod build 2178/release

Video
ID : 0
Format : MPEG-4 Visual
Format profile : Streaming [email protected]
Format settings, BVOP : Yes
Format settings, QPel : No
Format settings, GMC : No warppoints
Format settings, Matrix : Default (H.263)
Muxing mode : Packed bitstream
Codec ID : XVID
Codec ID/Hint : XviD
Duration : 1h 45mn
Bit rate : 810 Kbps
Width : 720 pixels
Height : 432 pixels
Display aspect ratio : 1.667
Frame rate : 29.970 fps
Resolution : 24 bits
Colorimetry : 4:2:0
Scan type : Progressive
Bits/(Pixel*Frame) : 0.087
Stream size : 610 MiB (87%)
Writing library : XviD 1.2.1 (UTC 2008-12-04)

Audio
ID : 1
Format : MPEG Audio
Format version : Version 1
Format profile : Layer 3
Codec ID : 55
Codec ID/Hint : MP3
Duration : 1h 45mn
Bit rate mode : Variable
Bit rate : 106 Kbps
Nominal bit rate : 128 Kbps
Channel(s) : 2 channels
Sampling rate : 44.1 KHz
Resolution : 16 bits
Stream size : 79.5 MiB (11%)
Alignment : Aligned on interleaves
Interleave, duration : 26 ms (0.78 video frame)
Interleave, preload duration : 509 ms
Writing library : LAME3.98r
Encoding settings : -m j -V 4 -q 2 -lowpass 17 --abr 128





Screenshots:

http://i45.tinypic.com/210hstx.jpg


http://i45.tinypic.com/2h7mgcz.jpg


http://i49.tinypic.com/2qwew74.jpg


http://i47.tinypic.com/15zp9ae.jpg



Related torrents

Torrent NameAddedSizeSeedLeechHealth
1 Year+ - in Movies739.46 MB11
1 Year+ - in Movies707.3 MB00
1 Year+ - in Movies676.86 MB10
1 Year+ - in Movies710.01 MB00
1 Year+ - in Movies642.17 MB10

Comments (0 Comments)




Please login or create a FREE account to post comments

Latest Searches

| Taylors girl | super bugs | the right stuff x265 | serial crystal reports | MyLatinaTeen Hot Young Teen Anal 10 05 2015 | samsung galaxy 2 user manual | chris brown ft lil wayne tyga | saimin gakuen uncensored | manuel ferrara alexis fawx | ariana grande my e everything |