Quick Browse
Movies
TV shows
Music
Games
Applications
Anime
Other
Facebook
Advertising

Friends
Torrent Download
Movie4u
1337x.to
Torrent Downloads




Verified torrent ARPAN 1983 DVDRIP XVID UNTOUCH AC3 Striker WBZ


    Seeders : 0      Leechers : 1
Hash :AE4ABCDFAD3A1496EF411FFA16466B20207581E9
Added :1 Year+ by striker123Verified torrent uploader in Movies
Size :1.47 GB
Stream :WATCH ONLINE @ Movie4u


ARPAN 1983 DVDRIP XVID UNTOUCH AC3 Striker WBZ
Free and Fast Download with Usenet 300GB+ free







Trackers List

Tracker NameLast CheckStatusSeedersLeechers
http://bigfoot1942.sektori.org:6969/announce1 Year+success00
http://announce.torrentsmd.com:6969/announce1 Year+success00
udp://tracker.coppersurfer.tk:801 Year+success01
http://torrent.gresille.org/announce1 Year+success00
http://tracker.winglai.com/announce1 Year+success00
http://tracker.windsormetalbattery.com/announce1 Year+success00
http://tracker.nwps.ws:6969/announce1 Year+success00
udp://open.demonii.com:1337/announce1 Year+success00
udp://9.rarbg.com:2710/announce1 Year+success00
http://tracker.trackerfix.com/announce1 Year+success00




Torrent File Content (12 files)


ARPAN 1983 DVDRIP XVID UNTOUCH AC3 Striker WBZ
     ARPAN 1983 DVDRIP XVID UNTOUCH AC3 Striker WBZ.avi -
1.45 GB

     Sample.avi -
21.92 MB

    Screens
          1.jpg -
76.73 KB

          10.jpg -
44.11 KB

          2.jpg -
53.42 KB

          3.jpg -
58.19 KB

          4.jpg -
47.15 KB

          5.jpg -
46.72 KB

          6.jpg -
41.88 KB

          7.jpg -
44.29 KB

          8.jpg -
42.45 KB

          9.jpg -
44.59 KB



Description



http://mdfazal.files.wordpress.com/2009/02/1983-b-arpan.jpg


[code]General
Format : AVI
Format/Info : Audio Video Interleave
File size : 1.45 GiB
Duration : 2h 25mn
Overall bit rate : 1 426 Kbps

Video
ID : 0
Format : MPEG-4 Visual
Format profile : Advanced [email protected]
Format settings, BVOP : 2
Format settings, QPel : No
Format settings, GMC : No warppoints
Format settings, Matrix : Default (H.263)
Codec ID : XVID
Codec ID/Hint : XviD
Duration : 2h 25mn
Bit rate : 1 033 Kbps
Width : 704 pixels
Height : 384 pixels
Display aspect ratio : 16:9
Frame rate : 29.970 fps
Color space : YUV
Chroma subsampling : 4:2:0
Bit depth : 8 bits
Scan type : Progressive
Compression mode : Lossy
Bits/(Pixel*Frame) : 0.127
Stream size : 1.05 GiB (72%)
Writing library : XviD 1.2.1 (UTC 2008-12-04)

Audio
ID : 1
Format : AC-3
Format/Info : Audio Coding 3
Mode extension : CM (complete main)
Codec ID : 2000
Duration : 2h 25mn
Bit rate mode : Constant
Bit rate : 384 Kbps
Channel(s) : 6 channels
Channel positions : Front: L C R, Side: L R, LFE
Sampling rate : 48.0 KHz
Bit depth : 16 bits
Compression mode : Lossy
Stream size : 401 MiB (27%)
Alignment : Aligned on interleaves
Interleave, duration : 64 ms (1.92 video frames)
Interleave, preload duration : 192 ms
Title : Striker[WBZ] [/code]


http://pic.phyrefile.com/s/sh/shahaz/2011/04/12/1_002.jpg

http://pic.phyrefile.com/s/sh/shahaz/2011/04/12/2_002.jpg

http://pic.phyrefile.com/s/sh/shahaz/2011/04/12/3_001.jpg

http://pic.phyrefile.com/s/sh/shahaz/2011/04/12/4_001.jpg

http://pic.phyrefile.com/s/sh/shahaz/2011/04/12/5_001.jpg

http://pic.phyrefile.com/s/sh/shahaz/2011/04/12/6_001.jpg

http://pic.phyrefile.com/s/sh/shahaz/2011/04/12/7_001.jpg

http://pic.phyrefile.com/s/sh/shahaz/2011/04/12/8_001.jpg

http://pic.phyrefile.com/s/sh/shahaz/2011/04/12/9_001.jpg

http://pic.phyrefile.com/s/sh/shahaz/2011/04/12/10_001.jpg



Related torrents

Torrent NameAddedSizeSeedLeechHealth
Verified torrent
1 Year+ - in Movies1.23 GB10
Verified torrent
1 Year+ - in Movies1.47 GB10
Verified torrent
1 Year+ - in Movies1.47 GB00
Verified torrent
1 Year+ - in Movies1.48 GB10
Verified torrent
1 Year+ - in Movies1.38 GB10

Comments (0 Comments)




Please login or create a FREE account to post comments

Latest Searches

| raven redmond XXX | formula 1 2016 canada qualifying sd | blake mitchell threesome | darkx jaye summer innocent cutie tries bbc 02 12 2016 new december 02 2016 | image week 11 30 2016 nem | suze randall kayden kross and charles dera bathroom | NaughtyOffice a Roxy Jezel | Crusaders Free As The Wind 1977 FLAC | Griffin Stone Duke of Decadence | klara paloma stuff |