Quick Browse
Movies
TV shows
Music
Games
Applications
Anime
Other

Donate and Support

Friends
Torrents.me
Torrent Download
Free Movies
1337x
RARBG
Torrent Downloads

Aap Mujhe Achche Lagne Lage (2002) 1Cd DvdRip x264


    Seeders : 0      Leechers : 0
Hash :FC4C6D161B239C720E62E86FC2A841B4851D08BB
Added :1 Year+ in Movies
Size :650.24 MB
Stream :Watch Full Movies Online @ Movie4u
Share :


Aap Mujhe Achche Lagne Lage (2002) 1Cd DvdRip x264
Anonymous and free Direct Download







Warning! Do not Download Torrents Without a VPN!
Your IP Address is .   And Location is
Your Internet Provider and Government can track your torrent Activity!  Hide your IP ADDRESS with a VPN!
We Strongly Recommend Using SpyOFF Torrent VPN to Anonymize your Torrenting. It's FREE For 15 Days!

Note :

Please Update (Trackers Info) Before Downloading Torrents to See Updated Seeders And Leechers for Batter Download Speed.

Trackers List

Tracker NameLast CheckStatusSeedersLeechers




Torrent File Content (1 file)


     Aap.Mujhe.Achche.Lagne.Lage.1Cd.2002.Dvdrip.[CL]{TLrG}{bindassdesi.com}.mkv -
650.24 MB



Description



Uploader - BinDassDeSi

General
Complete name : E:Aap.Mujhe.Achche.Lagne.Lage.1Cd.2002.Dvdrip..mkv
Format : Matroska
File size : 650 MiB
Duration : 2h 53mn
Overall bit rate : 524 Kbps
Encoded date : UTC 2009-12-22 00:32:55
Writing application : mkvmerge v2.9.7 ('Tenderness') built on Jul 1 2009 18:43:35
Writing library : libebml v0.7.7 + libmatroska v0.8.1

Video
ID : 1
Format : AVC
Format/Info : Advanced Video Codec
Format profile : [email protected]
Format settings, CABAC : Yes
Format settings, ReFrames : 2 frames
Muxing mode : Container [email protected]
Codec ID : V_MPEG4/ISO/AVC
Duration : 2h 53mn
Bit rate : 424 Kbps
Nominal bit rate : 435 Kbps
Width : 640 pixels
Height : 272 pixels
Display aspect ratio : 2.35:1
Frame rate : 23.976 fps
Resolution : 24 bits
Colorimetry : 4:2:0
Scan type : Progressive
Bits/(Pixel*Frame) : 0.102
Stream size : 526 MiB (81%)
Writing library : x264 core 68 r1183M f21daff
Language : English

Audio
ID : 2
Format : MPEG Audio
Format version : Version 1
Format profile : Layer 3
Codec ID : A_MPEG/L3
Codec ID/Hint : MP3
Duration : 2h 53mn
Bit rate mode : Variable
Bit rate : 89.6 Kbps
Nominal bit rate : 96.0 Kbps
Channel(s) : 2 channels
Sampling rate : 32.0 KHz
Resolution : 16 bits
Stream size : 111 MiB (17%)
Writing library : LAME3.98r
Encoding settings : -m j -V 4 -q 2 -lowpass 15.1 --abr 96

http://img130.imageshack.us/img130/1458/vlcsnap2009122206h10m04.png
http://img130.imageshack.us/img130/5724/vlcsnap2009122206h10m09.png
http://img97.imageshack.us/img97/639/vlcsnap2009122206h10m19.png
http://img97.imageshack.us/img97/1103/vlcsnap2009122206h10m51.png
http://img97.imageshack.us/img97/2807/vlcsnap2009122206h11m18.png
http://img188.imageshack.us/img188/1831/vlcsnap2009122206h11m45.png
http://img693.imageshack.us/img693/8390/vlcsnap2009122206h12m27.png

Related torrents

Torrent NameAddedSizeSeedLeechHealth
1 Year+ - in Movies3 GB82
Verified torrent
1 Year+ - in Music119.9 MB00
1 Year+ - in Movies3 GB15
1 Year+ - in Movies2.72 GB00
1 Year+ - in Music69.83 MB70

Comments (0 Comments)




Please login or create a FREE account to post comments

Latest Searches

| oculus italian | thomas friends latino | Batman a killing joke | Carla Crouz Cruisin For A Bruisin X | puremature Private Entrance | bang roommate | Tron 1080p lat | Engineering Circuit Analysis vol 4 | KARTER foxx escort | boys books |