Quick Browse
Movies
TV shows
Music
Games
Applications
Anime
Other
Facebook
Advertising

Friends
Torrent Download
Movie4u
1337x.to
Torrent Downloads




Verified torrent Abandoned [DVD5] [ENG] [AC3] [Hannspree]


    Seeders : 1      Leechers : 2
Hash :A8C4E15A605C14CC53EFACAE4B39EA84D3839ACC
Added :1 Year+ by HannspreeVerified torrent uploader in Movies
Size :1.67 GB
Stream :WATCH ONLINE @ Movie4u


Abandoned [DVD5] [ENG] [AC3] [Hannspree]
Free and Fast Download with Usenet 300GB+ free







Trackers List

Tracker NameLast CheckStatusSeedersLeechers




Torrent File Content (13 files)


Abandoned
    Abandoned [DVD]
          VIDEO_TS/VIDEO_TS.BUP -
12 KB

          VIDEO_TS/VIDEO_TS.IFO -
12 KB

          VIDEO_TS/VIDEO_TS.VOB -
58 KB

          VIDEO_TS/VTS_01_0.BUP -
64 KB

          VIDEO_TS/VTS_01_0.IFO -
64 KB

          VIDEO_TS/VTS_01_0.VOB -
58 KB

          VIDEO_TS/VTS_01_1.VOB -
1023.97 MB

          VIDEO_TS/VTS_01_2.VOB -
690.68 MB

          Abandoned [Images]/Abandoned [Cover].jpg -
53.99 KB

          Abandoned [Images]/Abandoned [Disc].jpg -
35.48 KB

          Abandoned [Images]/Abandoned [Screens].jpg -
134.7 KB

     Abandoned.NFO -
4.64 KB

     Torrent downloaded from Demonoid.com.txt -
47 bytes



Description



=====================================================================================
[ Another free, high quality, ready to burn DVD I will be adding new torrents on a daily basis - Remember to seed ]
=====================================================================================
MOVIE TITLE: Abandoned
LANGUAGE: English
MOVIE SUBS: No
BURN TESTED: Yes
FORMAT: Pal
GENRE: Drama | Mystery | Thriller
RUNTIME: 88 Minutes
YEAR: 2010
IMDB LINK: http://www.imdb.com/title/tt1470171/
=====================================================================================
MOVIE DESC:

In Los Angeles, Mary Walsh, a bank manager, takes her boyfriend, Kevin Peterson, to the County Memorial Hospital for an orthopedic surgery of ligaments of his left knee an operation to be performed by Dr. Harding. Mary is a needy woman that has just lost her mother and started a relationship with Kevin four months ago. Mary meets Kevin, still wearing a brace on his left leg, in the preparation room of the hospital nurse Amanda asks her to move to the waiting room. When Mary seeks information about the surgery, she finds that there is no record of Kevin in the system and he has vanished. Furthermore, Dr. Harding is on vacation and she can't locate a nurse Amanda on the staff lists. She calls the police and Detective Franklin is assigned to the case. No one believes Mary's story particularly when she accidentally drops her anti-depression pills on the floor, so she is sent to psychological evaluation with Dr. Markus Bensley that diagnoses her as unstable and delusional woman. Mary flees from his office and seeks out Kevin alone disclosing the truth about her prince charming.
=====================================================================================
MOVIE SPECS:

GENERAL:
Complete name : Abandoned [DVD5]
Format : MPEG-PS
File size : 1.67 GB
Duration : 88 Minutes
Overall bit rate : 2 675 Kbps

VIDEO:
ID : 224 (0xE0)
Format : MPEG Video
Format version : Version 2
Format profile : [email protected]
Format settings, BVOP : Yes
Format settings, Matrix : Default
Duration : 88 Minutes
Bit rate mode : Variable
Bit rate : 2 430 Kbps
Nominal bit rate : 9 608 Kbps
Width : 720 pixels
Height : 576 pixels
Display aspect ratio : 16:9
Frame rate : 24.000 fps
Standard : PAL
Color space : YUV
Chroma subsampling : 4:2:0
Bit depth : 8 bits
Scan type : Progressive
Scan order : 2:2:2:2:2:2:2:2:2:2:2:3 Pulldown
Bits/(Pixel*Frame) : 0.244
Stream size : 930 MiB (91%)

AUDIO:
ID : 128 (0x80)
Format : AC-3
Format/Info : Audio Coding 3
Mode extension : CM (complete main)
Duration : 88 Minutes
Bit rate mode : Constant
Bit rate : 192 Kbps
Channel(s) : 2 channels
Channel positions : Front: L R
Sampling rate : 48.0 KHz
Stream size : 73.5 MiB (7%)
=====================================================================================
TRACKERS:
http://inferno.demonoid.com:3402/announce
http://denis.stalker.h3q.com:6969/announce
http://nemesis.1337x.org/announce
http://exodus.1337x.org/announce
http://tracker.publicbt.com/announce
http://10.rarbg.com/announce
http://tracker.ilibr.org:6969/announce
http://tpb.tracker.prq.to/announce
http://rt.beeretracker.net/announce.php
http://red.tracker.prq.to/announce
http://tracker.torrentbox.com:2710/announce
=====================================================================================
[FOOT NOTE]
If you are happy with this download, it would be nice to hear your views or comments that you might have. Enjoy
=====================================================================================
Screen Shot Of Abandoned
=====================================================================================
http://leetpic.com/images/abandoneds.jpg

=====================================================================================

Related torrents

Torrent NameAddedSizeSeedLeechHealth
Verified torrent
1 Year+ - in Movies1.68 GB42
Verified torrent
1 Year+ - in Movies1.63 GB03
Verified torrent
1 Year+ - in Movies2.14 GB28
Verified torrent
1 Year+ - in Movies869.42 MB55
Verified torrent
1 Year+ - in Movies2 GB02

Comments (0 Comments)




Please login or create a FREE account to post comments

Latest Searches

| all i want for christmas is for you | newsweek 17 july 2015 true pdf w cover no watermarks | Angels Christmas | man fuck teen girl | rizzoli isles s06e05 720p | l young boy | erykah badu feat | r and b christmas music | Creating Web APIs | DCs Legends of Tomorrow s02e04 1080p |