Quick Browse
Movies
TV shows
Music
Games
Applications
Anime
Other
Facebook
Friends
Torrent Download
Movie4u
1337x.to
Torrent Downloads

Verified torrent Accountant (2016)[BDRip 1080p by alE13 DTS AC3[Napisy PL Eng][Eng]


    Seeders : 44      Leechers : 129


Trackers List

Tracker NameLast CheckStatusSeedersLeechers
http://tracker.torrentyorg.pl/announce3 months agosuccess44129
http://tracker.tfile.me/announce3 months agosuccess42124
udp://tracker.coppersurfer.tk:6969/announce3 months agosuccess42119
udp://tracker.leechers-paradise.org:6969/announce3 months agosuccess41115
http://mgtracker.org:2710/announce3 months agosuccess2971
udp://p4p.arenabg.ch:1337/announce3 months agosuccess65
udp://tracker.opentrackr.org:1337/announce3 months agosuccess54
udp://9.rarbg.me:2710/announce3 months agosuccess47
udp://9.rarbg.to:2710/announce3 months agosuccess47
udp://tracker.internetwarriors.net:1337/announce3 months agosuccess14
http://retracker.omsk.ru:2710/announce3 months agosuccess00
udp://tracker.trackerfix.com:80/announce3 months agosuccess00
http://explodie.org:6969/announce3 months agosuccess00




Torrent File Content (10 files)


The Accountant (2016)-alE13
    info
          Nostalgie11.jpg -
185.84 KB

          Torrent downloaded from alE13 torrents at BTScene.org.txt -
120 bytes

          Torrent downloaded from alE13 at torrents at ahashare.com.txt -
98 bytes

          torrent downoloadet from auratorrent.txt -
93 bytes

          Torrent downloaded from demonoid.pw.txt -
46 bytes

    subtitles
          The Accountant (2016)-alE13.rar -
83.33 KB

     The Accountant (2016)-alE13.mkv -
7.81 GB

     sample.mkv -
60.2 MB

     poster.jpg -
59.96 KB

     cover.jpg -
53.29 KB



Description



Movies : Crime : HD 1080p / 1080i : English


http://www.imdb.com/title/tt2140479/
http://www.filmweb.pl/film/Ksi%C4%99gowy-2016-728399

re?yseria: Gavin O'Connor
scenariusz: Bill Dubuque
gatunek: Dramat,Krymina?
produkcja: USA
premiera: 06-10-2016
muzyka: Mark Isham
zdj?cia: Seamus McGarvey
czas: 2h 7mn

As a math savant uncooks the books for a new client, the Treasury Department
closes in on his activities and the body count starts to rise.

Ksi?gowy Christian Wolff uwielbia anomalie. Niewa?ne, czy chodzi o psy graj?ce
w pokera na obrazie, czy podejrzane przelewy w ksi?gach rachunkowych korporacji.
Ka?de odst?pstwo od normy rozbudza jego ciekawo??. Co ciekawe, samemu Christianowi
tak?e daleko jest do przeci?tnego buchaltera: z jednej strony prowadzi biuro w miejscu,
gdzie diabe? mówi dobranoc, z drugiej po godzinach ?wiadczy us?ugi najgro?niejszym
zakapiorom na kuli ziemskiej. Cho? sposobem bycia przypomina bohatera "Rain Mana", mo?e
pochwali? si? zestawem umiej?tno?ci godnych Jasona Bourne'a. Kim naprawd? jest Wolff
i jaki sekret skrywa?






obsada:

Ben Affleck, Anna Kendrick, John Lithgow

dane techniczne:

The Accountant (2016)-alE13.mkv
Format : Matroska
Format version : Version 4 / Version 2
File size : 7.81 GiB
Duration : 2 h 7 min
Overall bit rate : 8 736 kb/s
Movie name : The Accountant (2016)-alE13
Encoded date : UTC 2016-12-26 06:41:03
Writing application : mkvmerge v8.1.0 ('Psychedelic Postcard') 64bit
Writing library : libebml v1.3.1 + libmatroska v1.4.2
Cover : Yes
Attachments : cover.jpg / txt.jpg

Video
ID : 1
Format : AVC
Format/Info : Advanced Video Codec
Format profile : [email protected]/* */
Format settings, CABAC : Yes
Format settings, ReFrames : 2 frames
Codec ID : V_MPEG4/ISO/AVC
Duration : 2 h 7 min
Bit rate : 6 777 kb/s
Width : 1 920 pixels
Height : 800 pixels
Display aspect ratio : 2.40:1
Frame rate mode : Constant
Frame rate : 23.976 (24000/1001) FPS
Color space : YUV
Chroma subsampling : 4:2:0
Bit depth : 8 bits
Scan type : Progressive
Bits/(Pixel*Frame) : 0.184
Stream size : 6.05 GiB (78%)
Title : The Accountant (2016)-alE13
Writing library : x264 core 142
Default : Yes
Forced : No
Color range : Limited
Color primaries : BT.709
Transfer characteristics : BT.709
Matrix coefficients : BT.709

Audio #1
ID : 2
Format : AC-3
Format/Info : Audio Coding 3
Mode extension : CM (complete main)
Format settings, Endianness : Big
Codec ID : A_AC3
Duration : 2 h 7 min
Bit rate mode : Constant
Bit rate : 448 kb/s
Channel(s) : 6 channels
Channel positions : Front: L C R, Side: L R, LFE
Sampling rate : 48.0 kHz
Frame rate : 31.250 FPS (1536 spf)
Bit depth : 16 bits
Compression mode : Lossy
Stream size : 410 MiB (5%)
Title : The Accountant (2016)-alE13_AC3
Language : English
Default : No
Forced : No

Audio #2
ID : 3
Format : DTS
Format/Info : Digital Theater Systems
Mode : 16
Format settings, Endianness : Big
Codec ID : A_DTS
Duration : 2 h 7 min
Bit rate mode : Constant
Bit rate : 1 509 kb/s
Channel(s) : 6 channels
Channel positions : Front: L C R, Side: L R, LFE
Sampling rate : 48.0 kHz
Frame rate : 93.750 FPS (512 spf)
Bit depth : 24 bits
Compression mode : Lossy
Stream size : 1.35 GiB (17%)
Title : The Accountant (2016)-alE13_DTS
Language : English
Default : Yes
Forced : No

Text #1
ID : 4
Format : UTF-8
Codec ID : S_TEXT/UTF8
Codec ID/Info : UTF-8 Plain Text
Duration : 1 h 58 min
Bit rate : 54 b/s
Count of elements : 1495
Stream size : 47.5 KiB (0%)
Title : The Accountant (2016)-alE13_Full
Language : English
Default : No
Forced : No

Text #2
ID : 5
Format : UTF-8
Codec ID : S_TEXT/UTF8
Codec ID/Info : UTF-8 Plain Text
Duration : 1 h 59 min
Bit rate : 59 b/s
Count of elements : 1691
Stream size : 52.3 KiB (0%)
Title : The Accountant (2016)-alE13_SDH
Language : English
Default : No
Forced : No

Text #3
ID : 6
Format : UTF-8
Codec ID : S_TEXT/UTF8
Codec ID/Info : UTF-8 Plain Text
Duration : 1 h 58 min
Bit rate : 102 b/s
Count of elements : 1410
Stream size : 89.7 KiB (0%)
Title : The Accountant (2016)-alE13_color
Default : Yes
Forced : No

Menu
00:00:00.000 : en:00:00:00.000
00:13:01.447 : en:00:13:01.447
00:20:36.277 : en:00:20:36.277
00:29:30.394 : en:00:29:30.394
00:38:44.656 : en:00:38:44.656
00:49:33.679 : en:00:49:33.679
01:00:05.435 : en:01:00:05.435
01:13:39.707 : en:01:13:39.707
01:25:57.069 : en:01:25:57.069
01:39:15.658 : en:01:39:15.658
01:54:31.156 : en:01:54:31.156
02:01:40.251 : en:02:01:40.251
Facebook Twitter Google Digg Reddit LinkedIn StumbleUpon Email Show Demonoid some love with BitCoin: 1DNoidJdotDyNMm5CxA8XfbgCH8KsCjco3 How to get BitCoins?

Related torrents

Torrent NameAddedSizeSeedLeechHealth
3 months ago - in Movies7.87 GB131
3 months ago - in Movies8.12 GB00
3 months ago - in Movies8.11 GB00
3 months ago - in Movies7.35 GB00
2 months ago - in Movies8.66 GB00

Comments (0 Comments)




Please login or create a FREE account to post comments

Latest Searches

| Hacker 2016 | movie English 2017 1080p | Cara Wolf | CzechCasting Kristyna 7450 | Something wild | Nas 2004 Streets disciple | ATKGalleria 17 04 24 Emily Cash Toys 1080p MP4 KTR | the fiestas | the too | celebrity hack update |