Quick Browse
Movies
TV shows
Music
Games
Applications
Anime
Other
Facebook
Advertising

Friends
Torrent Download
Movie4u
1337x.to
Torrent Downloads




Verified torrent After Life [DVD] [ENG] [AC3] [Hannspree]


    Seeders : 3      Leechers : 35
Hash :11DE6B2FD16C5C3330E142BCA5D87BCA331DFE68
Added :1 Year+ by HannspreeVerified torrent uploader in Movies
Size :1.26 GB
Stream :WATCH ONLINE @ Movie4u


After Life [DVD] [ENG] [AC3] [Hannspree]
Free and Fast Download with Usenet 300GB+ free







Trackers List

Tracker NameLast CheckStatusSeedersLeechers




Torrent File Content (19 files)


After Life
    After Life [DVD]
          VIDEO_TS/VIDEO_TS.BUP -
12 KB

          VIDEO_TS/VIDEO_TS.IFO -
12 KB

          VIDEO_TS/VIDEO_TS.VOB -
58 KB

          VIDEO_TS/VTS_01_0.BUP -
74 KB

          VIDEO_TS/VTS_01_0.IFO -
74 KB

          VIDEO_TS/VTS_01_0.VOB -
58 KB

          VIDEO_TS/VTS_01_1.VOB -
1023.97 MB

          VIDEO_TS/VTS_01_2.VOB -
263.94 MB

    After Life [Images]
          After Life [Cover].jpg -
1.86 MB

          After Life [Disc].jpg -
49.12 KB

          After Life [Screens].jpg -
116.37 KB

     After Life.NFO -
4.39 KB

     Torrent downloaded from Ahashare.com.txt -
47 bytes

     Torrent downloaded from Demonoid.com.txt -
47 bytes

     Torrent downloaded from Genesis-sp.org.txt -
49 bytes

     Torrent downloaded from H33t.org.txt -
43 bytes

     Torrent downloaded from Limetorrents.com.txt -
51 bytes

     Torrent downloaded from TorrentBucket.org.txt -
52 bytes

     Torrent downloaded from Torrentsnet.com.txt -
48 bytes



Description



=====================================================================================
[ Another free, high quality, ready to burn DVD I will be adding new torrents on a daily basis - Remember to seed ]
=====================================================================================
MOVIE TITLE: After Life
LANGUAGE: English
MOVIE SUBS: No
BURN TESTED: Yes
FORMAT: Pal
GENRE: Drama | Mystery | Thriller
RUNTIME: 103 Minutes
YEAR: 2009
IMDB LINK: http://www.imdb.com/title/tt0838247/
=====================================================================================
MOVIE DESC:

After a horrific car accident, Anna (Ricci) wakes up to find the local funeral director Eliot Deacon (Neeson) preparing her body for her funeral. Confused, terrified and feeling still very much alive, Anna doesn't believe she's dead, despite the funeral director's reassurances that she is merely in transition to the afterlife. Eliot convinces her he has the ability to communicate with the dead and is the only one who can help her. Trapped inside the funeral home, with nobody to turn to except Eliot, Anna is forced to face her deepest fears and accept her own death. But Anna's grief-stricken boyfriend Paul (Long) still can't shake the nagging suspicion that Eliot isn't what he appears to be. As the funeral nears, Paul gets closer to unlocking the disturbing truth, but it could be too late; Anna may have already begun to cross over the other side.
=====================================================================================
MOVIE SPECS:

GENERAL:
Complete name : After Life
Format : MPEG-PS
File size : 1.25 GB
Duration : 103 Minutes
Overall bit rate : 1 730 Kbps

VIDEO:
ID : 224 (0xE0)
Format : MPEG Video
Format version : Version 2
Format profile : [email protected]
Format settings, BVOP : Yes
Format settings, Matrix : Default
Duration : 103 Minutes
Bit rate mode : Variable
Bit rate : 1 503 Kbps
Nominal bit rate : 9 608 Kbps
Width : 720 pixels
Height : 576 pixels
Display aspect ratio : 16:9
Frame rate : 24.000 fps
Standard : PAL
Color space : YUV
Chroma subsampling : 4:2:0
Bit depth : 8 bits
Scan type : Progressive
Scan order : 2:2:2:2:2:2:2:2:2:2:2:3 Pulldown
Bits/(Pixel*Frame) : 0.151
Stream size : 890 MiB (87%)

AUDIO:
ID : 128 (0x80)
Format : AC-3
Format/Info : Audio Coding 3
Mode extension : CM (complete main)
Duration : 103 Minutes
Bit rate mode : Constant
Bit rate : 192 Kbps
Channel(s) : 2 channels
Channel positions : Front: L R
Sampling rate : 48.0 KHz
Stream size : 114 MiB (11%)
=====================================================================================
TRACKERS:
http://inferno.demonoid.com:3401/announce
http://www.genesis-sp.org:2710/announce
http://tracker.torrentbox.com:2710/announce
http://denis.stalker.h3q.com:6969/announce
http://nemesis.1337x.org/announce
http://exodus.1337x.org/announce
http://tracker.publicbt.com/announce
http://10.rarbg.com/announce
http://tracker.ilibr.org:6969/announce
http://rt.beeretracker.net/announce.php
http://torrentbucket.org/announce
=====================================================================================
[FOOT NOTE]
If you are happy with this download, it would be nice to hear your views or comments that you might have. Enjoy
[NEW TORRENT SITE OPENED]
Check out http://torrentbucket.org/ The staff and members are extremely friendly and a relaxed enviroment, plus
there tracker reports live stats' (up-to-the-minute) on your uploaded torrents, your ratio could go through the
roof in no time, well worth joining, check them out!!
=====================================================================================
Screens Shots Of - After Life

http://leetpic.com/images/afterlifes.jpg

=====================================================================================

Related torrents

Torrent NameAddedSizeSeedLeechHealth
Verified torrent
1 Year+ - in Movies1.36 GB129
Verified torrent
1 Year+ - in Movies1.34 GB56
Verified torrent
1 Year+ - in Movies1.7 GB186
Verified torrent
1 Year+ - in Movies1.53 GB62
Verified torrent
1 Year+ - in Movies1.43 GB81

Comments (0 Comments)




Please login or create a FREE account to post comments

Latest Searches

| gourmet amateur bits 4 jpg | db cooper 2016 | dressmaker mkv ita | nesty beth | holed skye | avatar 1080p imax | ygopro percy full | silence dvdscr | Bob Hope Collection Thanks for the Memory 1938 | r romeo |