Quick Browse
Movies
TV shows
Music
Games
Applications
Anime
Other
Facebook
Advertising

Friends
Torrent Download
Movie4u
1337x.to
Torrent Downloads




Verified torrent After The Thin Man - Dopo L'Uomo Ombra (1936) [XviD - Italian English Ac3 - Sub Ita Eng] MIRCrew [TNT Village]


    Seeders : 4      Leechers : 37

Trackers List

Tracker NameLast CheckStatusSeedersLeechers




Torrent File Content (3 files)


Dopo L'Uomo Ombra - After The Thin Man (1936)
     Dopo L'Uomo Ombra - After The Thin Man (1936).avi -
1.37 GB

     Dopo L'Uomo Ombra - After The Thin Man (1936).idx -
229.24 KB

     Dopo L'Uomo Ombra - After The Thin Man (1936).sub -
15.16 MB



Description



After The Thin Man - Dopo L'Uomo Ombra (1936) [XviD - Italian English Ac3 - Sub Ita Eng] MIRCrew [TNT Village]


Dopo L'Uomo Ombra - After The Thin Man (1936) [XviD - Italian English Ac3 - Sub Ita Eng] MIRCrew [TNT Village]


[color=#663300]
http://img706.imageshack.us/img706/5530/mircreworiginal.gif


Dopo L'Uomo Ombra - After The Thin Man (1936)

a seguire tutta la saga

L'Uomo Ombra - The Thin Man (1934) [XviD - Ita Eng Ac3 - Sub Ita Eng]

Dopo L'Uomo Ombra - After The Thin Man (1936)

Si Riparla Dell'Uomo Ombra - Another Thin Man (1939)

L'Ombra Dell'Uomo Ombra - Shadow of the Thin Man (1941)

L'Uomo Ombra Torna A Casa - The Thin Man Goes Home (1945)

Il Canto Dell'Uomo Ombra - Song Of The Thin Man (1947)


[URL=http://www.imdb.it/title/tt0027260/]
http://img197.imageshack.us/img197/1332/imdblogo.gif
[/URL]

http://i752.photobucket.com/albums/xx170/robbyrs/after_the_thin_man.jpg


http://img128.imageshack.us/img128/3562/schedafilmrb.gif


Titolo originale After the Thin Man
Paese di produzione Stati Uniti
Anno 1936
Durata 112 min
Colore B/N

Secondo episodio della fortunata serie de "L'uomo ombra"

Genere commedia / poliziesco
Regia W.S. Van Dyke
Soggetto Dashiell Hammett
Sceneggiatura Albert Hackett, Frances Goodrich
Fotografia Oliver T. Marsh
Montaggio Robert Kern
Musiche Herbert Stothart, Edward Ward

http://i752.photobucket.com/albums/xx170/robbyrs/vlcsnap-2012-12-22-14h12m12s116.jpg


http://img825.imageshack.us/img825/3978/ringraziare.gif



http://img845.imageshack.us/img845/7838/cast.gif


William Powell: Nick Charles
Myrna Loy: Nora
James Stewart:David
Elissa Landi: Selma
Joseph Calleia: danzatore
Jessie Ralph: zia Katherine
Alan Marshal: Robert
Dorothy McNulty: Polly
Richard Cramer: gelataio
Baldwin Cooke: fotografo

http://i752.photobucket.com/albums/xx170/robbyrs/vlcsnap-2012-12-22-14h11m31s13.jpg



http://img222.imageshack.us/img222/4740/trama.gif



Il detective Nick Charles (Powell) aiutato dalla bravissima moglie, Nora (Loy), deve indagare sulla morte improvvisa di un ricco uomo ucciso sul punto di fuggire con l'amante..........


Storyline

Now back in San Francisco after their holiday in New York, Nick and Nora find themselves trying to solve another mystery. It's New Year's Eve and they are summoned to dinner at Nora's

elderly, and very aristocratic, family. There they find that cousin Selma's husband Robert has been missing for three days. Nick reluctantly agrees to look for him but the case takes a

twist when Robert is shot and Selma is accused of murder. Several other murders occur but eventually Nick gathers everyone into the same room to reveal the identity of the killer.

http://i752.photobucket.com/albums/xx170/robbyrs/vlcsnap-2012-12-22-14h11m13s91.jpg




http://img245.imageshack.us/img245/3893/datifile.gif



General
Complete name : Dopo L'Uomo Ombra - After The Thin Man (1936).avi
Format : AVI
Format/Info : Audio Video Interleave
File size : 1.37 GiB
Duration : 1h 47mn
Overall bit rate : 1 817 Kbps
Writing application : VirtualDubMod 1.5.4.1 (build 2178/release)
Writing library : VirtualDubMod build 2178/release

Video
ID : 0
Format : MPEG-4 Visual
Format profile : Advanced [email protected]
Format settings, BVOP : Yes
Format settings, QPel : No
Format settings, GMC : No warppoints
Format settings, Matrix : Custom
Codec ID : XVID
Codec ID/Hint : XviD
Duration : 1h 47mn
Bit rate : 1 424 Kbps
Width : 592 pixels
Height : 448 pixels
Display aspect ratio : 4:3
Frame rate : 25.000 fps
Color space : YUV
Chroma subsampling : 4:2:0
Bit depth : 8 bits
Scan type : Progressive
Bits/(Pixel*Frame) : 0.215
Stream size : 1.07 GiB (78%)
Writing library : XviD 1.2.1 (UTC 2008-12-04)

Audio #1
ID : 1
Format : AC-3
Format/Info : Audio Coding 3
Mode extension : CM (complete main)
Codec ID : 2000
Duration : 1h 47mn
Bit rate mode : Constant
Bit rate : 192 Kbps
Channel(s) : 1 channel
Channel positions : Front: C
Sampling rate : 48.0 KHz
Bit depth : 16 bits
Stream size : 148 MiB (11%)
Alignment : Aligned on interleaves
Interleave, duration : 96 ms (2.40 video frames)
Interleave, preload duration : 96 ms
Language : Italian

Audio #2
ID : 2
Format : AC-3
Format/Info : Audio Coding 3
Mode extension : CM (complete main)
Codec ID : 2000
Duration : 1h 47mn
Bit rate mode : Constant
Bit rate : 192 Kbps
Channel(s) : 1 channel
Channel positions : Front: C
Sampling rate : 48.0 KHz
Bit depth : 16 bits
Stream size : 148 MiB (11%)
Alignment : Aligned on interleaves
Interleave, duration : 96 ms (2.40 video frames)
Interleave, preload duration : 96 ms
Language : English


http://img40.imageshack.us/img40/2121/avrhgfsq3ik77m3offo0.gif


[/color]
[/color]

Related torrents

Torrent NameAddedSizeSeedLeechHealth
Verified torrent
1 Year+ - in Movies1.39 GB10
Verified torrent
1 Year+ - in Movies1.39 GB10
Verified torrent
1 Year+ - in Movies1.47 GB10
Verified torrent
1 Year+ - in Movies1.38 GB1824
Verified torrent
1 Year+ - in Movies1.42 GB251

Comments (0 Comments)




Please login or create a FREE account to post comments

Latest Searches

| grand tour hdtv s01e02 | freddys sister location | windows 1 flash | True Amateur Babes From Rusian AlinaM 903 | lovely lips rita lovely | the kinks hd | teen dominated | maino ft jadakiss | total eclipse pink floyd | Shook Ones Pt II |