Quick Browse
Movies
TV shows
Music
Games
Applications
Anime
Other

Donate and Support

Friends
Torrents.me
Torrent Download
Free Movies
1337x
RARBG
Torrent Downloads

Verified torrent Age Of Heroes 2011 DVDRiP XViD AC3 - IMAGiNE


    Seeders : 1      Leechers : 0
Hash :B5C0AA90DB5AF3818AA969F3625AE74F5D2314DE
Added :1 Year+ by memory100Verified torrent uploader in Movies
Size :1.61 GB
Stream :Watch Full Movies Online @ Movie4u
Share :


Age Of Heroes 2011 DVDRiP XViD AC3 - IMAGiNE
Anonymous and free Direct Download







Warning! Do not Download Torrents Without a VPN!
Your IP Address is .   And Location is
Your Internet Provider and Government can track your torrent Activity!  Hide your IP ADDRESS with a VPN!
We Strongly Recommend Using SpyOFF Torrent VPN to Anonymize your Torrenting. It's FREE For 15 Days!

Note :

Please Update (Trackers Info) Before Downloading Torrents to See Updated Seeders And Leechers for Batter Download Speed.

Trackers List

Tracker NameLast CheckStatusSeedersLeechers




Torrent File Content (9 files)


Age Of Heroes 2011 DVDRiP XViD AC3 - IMAGiNE
     Age Of Heroes 2011 DVDRiP XViD AC3 - IMAGiNE SAMPLE.avi -
26.09 MB

     Age Of Heroes 2011 DVDRiP XViD AC3 - IMAGiNE.NFO -
4.69 KB

     Age Of Heroes 2011 DVDRiP XViD AC3 - IMAGiNE.avi -
1.58 GB

     Budget seedboxs.txt -
44 bytes

     NW RG.nfo -
12.96 KB

     Torrent downloaded from Demonoid.me.txt -
46 bytes

     dreamthe.net.txt -
91 bytes

     northernwarriors.net.txt -
135 bytes

     sceneunderground.org.txt -
77 bytes



Description



http://i.imgur.com/2rqhp.jpg

[code]
Age Of Heroes 2011 DVDRiP XViD AC3 - IMAGiNE


Ripper ...........: IMAGiNE IMDB Rating.......: 7.3/10
Video Codec.......: XVID Release Date......: 13/06/11
Audio Codec.......: AC3 Theatre Date......: 21/05/11
Audio Bitrate.....: 448 Runtime.......: 1h 29mn
Subtitles.........: NIL Language..........: ENGLISH
Resolution......: 720 x 304 IMDb URL..........: http://www.imdb.com/title/tt1590950/

DETAILS:

Video
ID : 0
Format : MPEG-4 Visual
Format profile : Advanced [email protected]
Format settings, BVOP : 2
Format settings, QPel : No
Format settings, GMC : No warppoint
Format settings, Matrix : Default (MPEG)
Muxing mode : Packed bitstream
Codec ID : XVID
Codec ID/Hint : XviD
Duration : 1h 29mn
Bit rate : 2 066 Kbps
Width : 720 pixels
Height : 304 pixels
Display aspect ratio : 2.35:1
Frame rate : 25.000 fps
Color space : YUV
Chroma subsampling : 4:2:0
Bit depth : 8 bits
Scan type : Progressive
Compression mode : Lossy
Bits/(Pixel*Frame) : 0.378
Stream size : 1.30 GiB (82%)
Writing library : XviD 61
Audio

ID : 1
Format : AC-3
Format/Info : Audio Coding 3
Mode extension : CM (complete main)
Codec ID : 2000
Duration : 1h 29mn
Bit rate mode : Constant
Bit rate : 448 Kbp
Channel(s) : 6 channels
Channel positions : Front: L C R, Side: L R, LFE
Sampling rate : 48.0 KHz
Bit depth : 16 bits
Compression mode : Lossy
Stream size : 288 MiB (18%)
Alignment : Aligned on interleaves
Interleave, duration : 40 ms (1.00 video frame)

Plot:
The true story of the formation of Ian Fleming's 30 Commando unit, a precursor for the elite forces in the U.K.

SOURCES:
TheKin2 .............. Thanx Mate

NOTES:
IMAGiNE bringing you another release..........
Age Of Heroes......
Well here we ae with a dvdrip of Age Of Heroes........
Source was very nice, thanx to thekin2 for the files Made a script to crop and resize, then sharpened it up abit Audio was then remuxed to our encode
Enjoy Folks!
[/code]
Screens:
http://i.imgur.com/P3aQQ.jpg

http://i.imgur.com/EjGvv.jpg

http://i.imgur.com/ZJjPK.jpg

http://i.imgur.com/UFzHB.jpg

Related torrents

Torrent NameAddedSizeSeedLeechHealth
Verified torrent
1 Year+ - in Movies1.61 GB21
1 Year+ - in Movies2.59 GB224
1 Year+ - in Movies1.37 GB122
1 Year+ - in Movies1.37 GB07
1 Year+ - in Movies1.48 GB00

Comments (0 Comments)




Please login or create a FREE account to post comments

Latest Searches

| ZMD Zombies of Mass Destruction 2009 | i m still here 720p | Transformer war | top 40 2017 songs | The Softest Lips | June in the beat | Dimitri vegas hey baby | RealityKings Cassidy Banks Bad Secretary | Special Agent Pendergast | Baywatch 2017 BluRay EXTENDED |