Quick Browse
Movies
TV shows
Music
Games
Applications
Anime
Other
Facebook
Advertising

Friends
Torrent Download
Movie4u
1337x.to
Torrent Downloads




Agora.2009.Cam.Xvid~NoGrp


    Seeders : 58      Leechers : 59
Hash :9B11B925090AED34274E6AFE31713B6188AE4861
Added :1 Year+ in Movies
Size :683.67 MB
Stream :WATCH ONLINE @ Movie4u


Agora.2009.Cam.Xvid~NoGrp
Free and Fast Download with Usenet 300GB+ free







Trackers List

Tracker NameLast CheckStatusSeedersLeechers




Torrent File Content (52 files)


Agora.2009.Cam.Xvid~NoGrp
     Agora.2009.Cam.Xvid.NoGrp.nfo -
2.46 KB

     Agora.2009.Cam.Xvid.NoGrp.part01.rar -
13.97 MB

     Agora.2009.Cam.Xvid.NoGrp.part01.sfv -
5.88 KB

     Agora.2009.Cam.Xvid.NoGrp.part02.rar -
13.97 MB

     Agora.2009.Cam.Xvid.NoGrp.part03.rar -
13.97 MB

     Agora.2009.Cam.Xvid.NoGrp.part04.rar -
13.97 MB

     Agora.2009.Cam.Xvid.NoGrp.part05.rar -
13.97 MB

     Agora.2009.Cam.Xvid.NoGrp.part06.rar -
13.97 MB

     Agora.2009.Cam.Xvid.NoGrp.part07.rar -
13.97 MB

     Agora.2009.Cam.Xvid.NoGrp.part08.rar -
13.97 MB

     Agora.2009.Cam.Xvid.NoGrp.part09.rar -
13.97 MB

     Agora.2009.Cam.Xvid.NoGrp.part10.rar -
13.97 MB

     Agora.2009.Cam.Xvid.NoGrp.part11.rar -
13.97 MB

     Agora.2009.Cam.Xvid.NoGrp.part12.rar -
13.97 MB

     Agora.2009.Cam.Xvid.NoGrp.part13.rar -
13.97 MB

     Agora.2009.Cam.Xvid.NoGrp.part14.rar -
13.97 MB

     Agora.2009.Cam.Xvid.NoGrp.part15.rar -
13.97 MB

     Agora.2009.Cam.Xvid.NoGrp.part16.rar -
13.97 MB

     Agora.2009.Cam.Xvid.NoGrp.part17.rar -
13.97 MB

     Agora.2009.Cam.Xvid.NoGrp.part18.rar -
13.97 MB

     Agora.2009.Cam.Xvid.NoGrp.part19.rar -
13.97 MB

     Agora.2009.Cam.Xvid.NoGrp.part20.rar -
13.97 MB

     Agora.2009.Cam.Xvid.NoGrp.part21.rar -
13.97 MB

     Agora.2009.Cam.Xvid.NoGrp.part22.rar -
13.97 MB

     Agora.2009.Cam.Xvid.NoGrp.part23.rar -
13.97 MB

     Agora.2009.Cam.Xvid.NoGrp.part24.rar -
13.97 MB

     Agora.2009.Cam.Xvid.NoGrp.part25.rar -
13.97 MB

     Agora.2009.Cam.Xvid.NoGrp.part26.rar -
13.97 MB

     Agora.2009.Cam.Xvid.NoGrp.part27.rar -
13.97 MB

     Agora.2009.Cam.Xvid.NoGrp.part28.rar -
13.97 MB

     Agora.2009.Cam.Xvid.NoGrp.part29.rar -
13.97 MB

     Agora.2009.Cam.Xvid.NoGrp.part30.rar -
13.97 MB

     Agora.2009.Cam.Xvid.NoGrp.part31.rar -
13.97 MB

     Agora.2009.Cam.Xvid.NoGrp.part32.rar -
13.97 MB

     Agora.2009.Cam.Xvid.NoGrp.part33.rar -
13.97 MB

     Agora.2009.Cam.Xvid.NoGrp.part34.rar -
13.97 MB

     Agora.2009.Cam.Xvid.NoGrp.part35.rar -
13.97 MB

     Agora.2009.Cam.Xvid.NoGrp.part36.rar -
13.97 MB

     Agora.2009.Cam.Xvid.NoGrp.part37.rar -
13.97 MB

     Agora.2009.Cam.Xvid.NoGrp.part38.rar -
13.97 MB

     Agora.2009.Cam.Xvid.NoGrp.part39.rar -
13.97 MB

     Agora.2009.Cam.Xvid.NoGrp.part40.rar -
13.97 MB

     Agora.2009.Cam.Xvid.NoGrp.part41.rar -
13.97 MB

     Agora.2009.Cam.Xvid.NoGrp.part42.rar -
13.97 MB

     Agora.2009.Cam.Xvid.NoGrp.part43.rar -
13.97 MB

     Agora.2009.Cam.Xvid.NoGrp.part44.rar -
13.97 MB

     Agora.2009.Cam.Xvid.NoGrp.part45.rar -
13.97 MB

     Agora.2009.Cam.Xvid.NoGrp.part46.rar -
13.97 MB

     Agora.2009.Cam.Xvid.NoGrp.part47.rar -
13.97 MB

     Agora.2009.Cam.Xvid.NoGrp.part48.rar -
13.97 MB



Description



Agora.2009.Cam.Xvid.NoGrp

http://i49.tinypic.com/jie3qt.jpg


http://www.imdb.com/title/tt1186830/

Plot

A historical drama set in Roman Egypt, concerning a slave who turns to the rising tide of Christianity in the hopes of pursuing freedom while also falling in love with his master, the famous female philosophy professor and atheist Hypatia of Alexandria.





General
Complete name : Agora.2009.Cam.Xvid.NoGrp.avi
Format : AVI
Format/Info : Audio Video Interleave
File size : 695 MiB
Duration : 2h 17mn
Overall bit rate : 704 Kbps

Video
ID : 0
Format : MPEG-4 Visual
Format profile : [email protected]
Format settings, BVOP : No
Format settings, QPel : No
Format settings, GMC : No warppoints
Format settings, Matrix : Default (H.263)
Codec ID : XVID
Codec ID/Hint : XviD
Duration : 2h 17mn
Bit rate : 565 Kbps
Width : 544 pixels
Height : 304 pixels
Display aspect ratio : 16:9
Frame rate : 25.000 fps
Resolution : 24 bits
Colorimetry : 4:2:0
Scan type : Progressive
Bits/(Pixel*Frame) : 0.137
Stream size : 558 MiB (80%)
Writing library : XviD 1.1.2 (UTC 2006-11-01)

Audio
ID : 1
Format : MPEG Audio
Format version : Version 1
Format profile : Layer 3
Codec ID : 55
Codec ID/Hint : MP3
Duration : 2h 17mn
Bit rate mode : Constant
Bit rate : 112 Kbps
Channel(s) : 2 channels
Sampling rate : 44.1 KHz
Resolution : 16 bits
Video delay : 26ms
Stream size : 111 MiB (16%)
Alignment : Split accross interleaves
Interleave, duration : 26 ms (0.65 video frame)

http://i45.tinypic.com/2u3xes9.jpg


http://i45.tinypic.com/becw7q.jpg

Related torrents

Torrent NameAddedSizeSeedLeechHealth
1 Year+ - in Movies733.22 MB215
1 Year+ - in Movies583.49 MB00
1 Year+ - in Movies826.07 MB8070
6 months ago - in Movies897.31 MB6147
1 Year+ - in Movies15.62 GB33

Comments (0 Comments)




Please login or create a FREE account to post comments

Latest Searches

| Gina Valentina Twerking Teen | Ash vs Evil Dead S02E09 WEBRip X264 | lm a | Zafira Abbie Cat | unity android plugin c | joymii lara deep inside | PublicPickUps Suzy Rainbow Hungarian Hottie Pounded Outdoors NEW 18 August 2016 | august anoxmous | Gina Valentina Twerking | anal teen bride |