Quick Browse
Movies
TV shows
Music
Games
Applications
Anime
Other
Facebook
Advertising

Friends
Torrent Download
Movie4u
1337x.to
Torrent Downloads




Agora 2009 Cam Xvid-TA


    Seeders : 21      Leechers : 5
Hash :767E4D63D6EF8D32E9550B0BEEFFCB3DF30E838C
Added :1 Year+ in Movies
Size :733.22 MB
Stream :WATCH ONLINE @ Movie4u


Agora 2009 Cam Xvid-TA
Free and Fast Download with Usenet 300GB+ free







Trackers List

Tracker NameLast CheckStatusSeedersLeechers




Torrent File Content (1 file)


     Agora.2009.CAM.[www.iwannadownload.com].avi -
733.22 MB



Description



Agora (2009)

http://www.imdb.com/title/tt1186830/

A historical drama set in Roman Egypt, concerning a slave who turns to the rising tide of Christianity in the hopes of pursuing freedom while also falling in love with his master, the famous female philosophy professor and atheist Hypatia of Alexandria


Streaming Sample:
http://www.movshare.net/video/wdboafsidd2zw


Source : Agora.2009.Cam.Xvid.NoGrp.avi
General
Complete name : Agora.2009.Cam.Xvid.TA.avi
Format : AVI
Format/Info : Audio Video Interleave
File size : 733 MiB
Duration : 2h 17mn
Overall bit rate : 743 Kbps
Writing library : VirtualDub build 32661/release

Video
ID : 0
Format : MPEG-4 Visual
Format profile : [email protected]
Format settings, BVOP : Yes
Format settings, QPel : No
Format settings, GMC : No warppoints
Format settings, Matrix : Custom
Muxing mode : Packed bitstream
Codec ID : XVID
Codec ID/Hint : XviD
Duration : 2h 17mn
Bit rate : 621 Kbps
Width : 640 pixels
Height : 360 pixels
Display aspect ratio : 16:9
Frame rate : 25.000 fps
Resolution : 24 bits
Colorimetry : 4:2:0
Scan type : Progressive
Bits/(Pixel*Frame) : 0.108
Stream size : 613 MiB (84%)
Writing library : XviD 1.2.1 (UTC 2008-12-04)

Audio
ID : 1
Format : MPEG Audio
Format version : Version 1
Format profile : Layer 3
Codec ID : 55
Codec ID/Hint : MP3
Duration : 2h 17mn
Bit rate mode : Constant
Bit rate : 112 Kbps
Channel(s) : 2 channels
Sampling rate : 44.1 KHz
Resolution : 16 bits
Video delay : 26ms
Stream size : 111 MiB (15%)
Alignment : Split accross interleaves
Interleave, duration : 40 ms (1.00 video frame)
Interleave, preload duration : 500 ms

Related torrents

Torrent NameAddedSizeSeedLeechHealth
1 Year+ - in Movies683.67 MB5859
1 Year+ - in Movies722.23 MB6821
1 Year+ - in Movies795.62 MB1102
1 Year+ - in Movies784.1 MB2227
1 Year+ - in Movies795.62 MB362

Comments (0 Comments)




Please login or create a FREE account to post comments

Latest Searches

| on your mark gregor salto wiwek | celebration premiata | The Magnificent Seven 2016 BluRay x264 SPARKS | va magic christmas | Euro truck simulator 2 v1 5 2 1 trainer | someone 2 0 | ft trinidad james | HorribleSubs Naruto Shippuuden 454 480p mkv | boldlygirls apolonia daniela | mia mann |