Quick Browse
Movies
TV shows
Music
Games
Applications
Anime
Other
Facebook
Advertising

Friends
Torrent Download
Movie4u
1337x.to
Torrent Downloads




Aladdin 1992 1080p HDTV Dual Audio [Eng-Hindi]~Alan (HDDR Release)


    Seeders : 2      Leechers : 1

Trackers List

Tracker NameLast CheckStatusSeedersLeechers
udp://tracker.zond.org:80/announce1 Year+success21
udp://tracker.openbittorrent.com:80/announce1 Year+success20
udp://10.rarbg.me:80/announce1 Year+success11
udp://tracker.publicbt.com:80/announce1 Year+success11
udp://tracker.ilibr.org:6969/announce1 Year+success11
udp://tracker.istole.it:80/announce1 Year+success11
udp://tracker.token.ro:80/announce1 Year+success11
udp://ipv4.tracker.harry.lu:80/announce1 Year+success11
http://exodus.desync.com:6969/announce1 Year+success10
http://tracker.nwps.ws:6969/announce1 Year+success00
http://bigfoot1942.sektori.org:6969/announce1 Year+success00
http://tracker.windsormetalbattery.com/announce1 Year+success00
http://tracker.winglai.com/announce1 Year+success00
http://torrent-tracker.ru/announce.php1 Year+success00
http://torrent.gresille.org/announce1 Year+success00
udp://tracker.coppersurfer.tk:801 Year+success00
http://announce.torrentsmd.com:6969/announce1 Year+success00
udp://open.demonii.com:1337/announce1 Year+success00
udp://9.rarbg.com:2710/announce1 Year+success00
http://tracker.trackerfix.com/announce1 Year+success00




Torrent File Content (7 files)


Aladdin 1992 1080p HDTV Dual Audio [Eng-Hindi]~Alan (HDDR Release)
    Poster
          Aladdin.jpg -
87.72 KB

    Sample
          Sample.mkv -
25 MB

    Subtitles
          English.srt -
104.06 KB

          Torrent downloaded from Demonoid.me.txt -
46 bytes

          Torrent Downloaded from Limetorrents.com.txt -
44 bytes

     Aladdin 1992 1080p HDTV Dual Audio [Eng-Hindi]~Alan (HDDR Release).mkv -
2.12 GB

     INFO.nfo -
3.11 KB



Description



http://img6.imageshack.us/img6/1323/faraz.png


http://i1224.photobucket.com/albums/ee364/atc87/Aladdin.jpg


http://img94.imageshack.us/img94/3343/25ic0hd1.png


Release Title: Aladdin 1992

Release Date: 25th November 1992 (USA)

Film Length: 1:30:25

Tagline: Imagine if you had three wishes, three hopes, three dreams and they all could come true.

Storyline: Aladdin is a street-urchin who lives in a large and busy town long ago with his faithful monkey friend Abu. When Princess Jasmine gets tired of being forced to remain in the palace that overlooks the city, she sneaks out to the marketplace, where she accidentally meets Aladdin. Under the orders of the evil Jafar (the sultan's advisor), Aladdin is thrown in jail and becomes caught up in Jafar's plot to rule the land with the aid of a mysterious lamp. Legend has it that only a person who is a "diamond in the rough" can retrieve the lamp from the Cave of Wonders. Aladdin might fight that description, but that's not enough to marry the princess, who must (by law) marry a prince.

http://img90.imageshack.us/img90/4783/9k1gty1.png


Scott Weinger ... Aladdin (voice)
Robin Williams ... Genie (voice)
Linda Larkin ... Jasmine (voice)
Jonathan Freeman ... Jafar (voice)
Frank Welker ... Abu / Rajah (voice)
Gilbert Gottfried ... Iago (voice)
Douglas Seale ... Sultan (voice)
Charles Adler ... Additional Voices (voice) (as Charlie Adler)
Jack Angel ... Additional Voices (voice)
Corey Burton ... Additional Voices (voice)
Philip L. Clarke ... Additional Voices (voice) (as Philip Clarke)
Jim Cummings ... Razoul / Farouk / Omar (voice)
Jennifer Darling ... Additional Voices (voice)
Debi Derryberry ... Additional Voices (voice)
Bruce Gooch ... Additional Voices (voice)

http://img682.imageshack.us/img682/4868/zvbzx21.png


Genre: Animation | Adventure | Family
Format: Matroska
File Size: 2.12 GiB
Duration: 1h 30mn
Movie name: Aladdin 1992 1080p HDTV Dual Audio [Eng-Hindi]~Alan (HDDR Release)
Language: English and Hindi
Ripper: Alan

http://img518.imageshack.us/img518/241/windowsmediaplayerfile.png

Video
ID : 1
Format : AVC
Format/Info : Advanced Video Codec
Format profile : [email protected]
Format settings, CABAC : Yes
Format settings, ReFrames : 4 frames
Muxing mode : Header stripping
Codec ID : V_MPEG4/ISO/AVC
Duration : 1h 30mn
Bit rate : 2 782 Kbps
Width : 1 920 pixels
Height : 1 080 pixels
Display aspect ratio : 16:9
Frame rate : 23.976 fps
Color space : YUV
Chroma subsampling : 4:2:0
Bit depth : 8 bits
Scan type : Progressive
Bits/(Pixel*Frame) : 0.056
Stream size : 1.71 GiB (81%)
Title : Alan
Writing library : x264 core 114 r1924 08d04a4

http://img248.imageshack.us/img248/6613/musicfile1.png

Audio #1
ID : 2
Format : AC-3
Format/Info : Audio Coding 3
Mode extension : CM (complete main)
Muxing mode : Header stripping
Codec ID : A_AC3
Duration : 1h 30mn
Bit rate mode : Constant
Bit rate : 384 Kbps
Channel(s) : 6 channels
Channel positions : Front: L C R, Side: L R, LFE
Sampling rate : 48.0 KHz
Bit depth : 16 bits
Compression mode : Lossy
Stream size : 248 MiB (11%)
Title : Track 1
Language : English

http://img248.imageshack.us/img248/6613/musicfile1.png

Audio #2
ID : 3
Format : AC-3
Format/Info : Audio Coding 3
Mode extension : CM (complete main)
Muxing mode : Header stripping
Codec ID : A_AC3
Duration : 1h 30mn
Bit rate mode : Constant
Bit rate : 192 Kbps
Channel(s) : 2 channels
Channel positions : Front: L R
Sampling rate : 48.0 KHz
Bit depth : 16 bits
Compression mode : Lossy
Delay relative to video : 14ms
Stream size : 124 MiB (6%)
Title : Alan
Language : Hindi

http://img52.imageshack.us/img52/7996/ogtw21.gif


http://i1224.photobucket.com/albums/ee364/atc87/A1.png

http://i1224.photobucket.com/albums/ee364/atc87/A2.png

http://i1224.photobucket.com/albums/ee364/atc87/A3.png

http://i1224.photobucket.com/albums/ee364/atc87/A4.png

http://i1224.photobucket.com/albums/ee364/atc87/A5.png

http://i1224.photobucket.com/albums/ee364/atc87/A6.png

http://i1224.photobucket.com/albums/ee364/atc87/A7.png

http://i1224.photobucket.com/albums/ee364/atc87/A8.png


http://img408.imageshack.us/img408/4206/slqp2p1.gif



http://img265.imageshack.us/img265/1013/nlx4ysjpg.gif

Related torrents

Torrent NameAddedSizeSeedLeechHealth
1 Year+ - in Movies2.24 GB10
1 Year+ - in Anime2.23 GB10
1 Year+ - in Movies2.21 GB10
1 Year+ - in Movies2.9 GB10
Last Month - in Movies3.55 GB00

Comments (0 Comments)




Please login or create a FREE account to post comments

Latest Searches

| I kissed her | Passport DigitalPlayground | Los Amigos Invisibles Los Amigos rar | make in rain | Latin Eye Candy 12 | nature woman | im shady explicit eminem | american baking show | the xs and os | t i she can get it |