Quick Browse
Movies
TV shows
Music
Games
Applications
Anime
Other

Donate and Support

Friends
Torrents.me
Torrent Download
Free Movies
1337x
RARBG
Torrent Downloads

Alanis Morissette - Feast On Scraps [DVDRip.XviD-PS.AC3]


    Seeders : 0      Leechers : 3
Hash :3740A65E07546FAF878E8C846C91F425247C620F
Added :1 Year+ in Music - Music
Size :1.42 GB
Stream :Watch Full Movies Online @ Movie4u
Share :


Alanis Morissette - Feast On Scraps [DVDRip.XviD-PS.AC3]
Anonymous and Direct Download 300GB+ free







Warning! Do not Download Torrents Without a VPN!
Your IP Address is .   And Location is
Your Internet Provider and Government can track your torrent Activity!  Hide your IP ADDRESS with a VPN!
We Strongly Recommend Using SpyOFF Torrent VPN to Anonymize your Torrenting. It's FREE For 15 Days!

Note :

Please Update (Trackers Info) Before Downloading Torrents to See Updated Seeders And Leechers for Batter Download Speed.

Trackers List

Tracker NameLast CheckStatusSeedersLeechers




Torrent File Content (1 file)


     Alanis.Morissette.Feast.On.Scraps.DVDRip.XviD-PS.avi -
1.42 GB



Description



Cover = http://cover6.cduniverse.com/CDUCoverArt/video/Large/5374749.jpg

Feast on Scraps is an Alanis Morissette DVD released on December 10, 2002. The DVD was filmed during a concert in Rotterdam, Netherlands. A promotional-only double A-side of "Simple Together" and "Bent 4 U" was released in Europe, and Offer was released in Brazil, becoming very popular because at the time she appeared in a famous soap opera called "Celebridade" (Celebrity). As of September 2008, Feast on Scraps had sold 76,000 copies in the United States according to Nielsen SoundScan.

DVD Track List

"Baba" (Morissette, Glen Ballard)
"Right Through You" (Morissette, Ballard)
"21 Things I Want in a Lover" (Morissette)
"Hand in My Pocket" (Morissette, Ballard)
"Purgatorying" (part one) (Morissette)
"Unprodigal Daughter" (Morissette)
"Flinch" (Morissette)
"All I Really Want" (Morissette, Ballard)
"Precious Illusions" (Morissette)
"Sympathetic Character" (Morissette)
"Purgatorying" (part two) (Morissette)
"So Unsexy" (Morissette)
"Head over Feet" (Morissette, Ballard)
"Purgatorying" (part three) (Morissette)
"You Oughta Know" (Morissette, Ballard)
"Hands Clean" (Morissette)
"Uninvited" (Morissette)
"Ironic" (Morissette, Ballard)
"You Learn" (Morissette, Ballard)
"That Particular Time" (Morissette)
"Thank U" (Morissette, Ballard)

General
Format                           : AVI
Format/Info                      : Audio Video Interleave
Format profile                   : OpenDML
File size                        : 1.42 GiB
Duration                         : 2h 19mn
Overall bit rate                 : 1 453 Kbps
Writing application              : AVI-Mux GUI 1.17.7, Aug  8 2006  20:59:17

Video
Format                           : MPEG-4 Visual
Format profile                   : Streaming [email protected]
Format settings, BVOP            : Yes
Format settings, QPel            : Yes
Format settings, GMC             : No warppoints
Format settings, Matrix          : Default
Codec ID                         : XVID
Codec ID/Hint                    : XviD
Duration                         : 2h 19mn
Bit rate                         : 999 Kbps
Width                            : 656 pixels
Height                           : 368 pixels
Display aspect ratio             : 16/9
Frame rate                       : 29.970 fps
Resolution                       : 24 bits
Colorimetry                      : 4:2:0
Scan type                        : Progressive
Bits/(Pixel*Frame)               : 0.138
Stream size                      : 1 000 MiB (69%)
Writing library                  : XviD 1.2.1 (UTC 2008-12-04)

Audio
Format                           : AC-3
Format/Info                      : Audio Coding 3
Codec ID                         : 2000
Duration                         : 2h 19mn
Bit rate mode                    : Constant
Bit rate                         : 448 Kbps
Channel(s)                       : 6 channels
Channel positions                : Front: L C R, Surround: L R, LFE
Sampling rate                    : 48.0 KHz
Stream size                      : 448 MiB (31%)
Alignment                        : Aligned on interleaves
Interleave, duration             : 64 ms (1.92 video frames)
Interleave, preload duration     : 192 ms
Title                            : FeastOnScraps T81 3_2ch 448Kbps DELAY 0ms

Related torrents

Torrent NameAddedSizeSeedLeechHealth
1 Year+ - in Other847.11 MB00
4 months ago - in Music489.18 MB367
5 months ago - in Music62.25 MB93
6 months ago - in Music541.28 MB62
1 Year+ - in Music93.53 MB00

Comments (0 Comments)




Please login or create a FREE account to post comments

Latest Searches

| Paris devine Wetandpissy | mraz love four letter | Planes 2013 BRRip 720p x264 AAC PRiSTiNE P2PDL | Devious Maids S01E05 HDTV XviD FUM | Lily Labeau 08 2016 | norah jones too late | originals season S02 | STEVEN CURTIS CHAPMAN CHAPMAN | milfhunter victoria monet scent of victoria xxx | lt girl |