Quick Browse
Movies
TV shows
Music
Games
Applications
Anime
Other
Facebook
Advertising

Friends
Torrent Download
Movie4u
1337x.to
Torrent Downloads




Alibi.E.Sospetti.2008.iTALiAN.DVDRip.XviD-Republic.[ultimafrontiera]


    Seeders : 0      Leechers : 0

Trackers List

Tracker NameLast CheckStatusSeedersLeechers




Torrent File Content (1 file)


     Alibi.E.Sospetti.2008.iTALiAN.DVDRip.XviD-Republic.avi -
699.95 MB



Description



http://i35.tinypic.com/23vevc8.jpg


http://i36.tinypic.com/120rq7m.jpg


http://i36.tinypic.com/2wlzn9f.jpg


Titolo originale: Le grand alibi
Nazione: Francia
Anno: 2008
Genere: Giallo
Durata: 93
Regia: Pascal Bonitzer
Produzione: SBS Films



http://i34.tinypic.com/301n9ec.jpg


[color=#00FF00]Miou-Miou, Lambert Wilson, Caterina Murino, Valeria Bruni Tedeschi, Pierre Arditi, Anne Consigny, Mathieu Demy, Maurice Bénichou, Céline Sallette, Agathe Bonitzer[/color]

http://i33.tinypic.com/2ldeeyr.jpg


[color=orange]Il senatore Henri Pagès e sua moglie, sono soliti ospitare degli amici durante il fine settimana, nella loro casa di campagna vicino Parigi. Anche questo week-end non saltano l'appuntamento e tutto sembra andare come al solito... ma questa volta, uno degli ospiti, lo psicanalista Pierre Collier, viene trovato morto e la moglie seduta accanto a lui con una pistola in mano. Naturalmente la donna é la prima sospettata, ma le apparenze alcune volte ingannano...[/color]

http://i38.tinypic.com/2ihuvd2.jpg


[color=red] [/color]


http://i34.tinypic.com/1z1495e.jpg


[code]Format : AVI
Format/Info : Audio Video Interleave
File size : 700 MiB
Duration : 1h 29mn
Overall bit rate : 1 096 Kbps
Writing application : VirtualDubMod 1.5.10.2 (build 2540/release)
Writing library : VirtualDubMod build 2540/release

Video
ID : 0
Format : MPEG-4 Visual
Format profile : [email protected]
Format settings, BVOP : Yes
Format settings, QPel : No
Format settings, GMC : No warppoints
Format settings, Matrix : Default (H.263)
Codec ID : XVID
Codec ID/Hint : XviD
Duration : 1h 29mn
Bit rate : 950 Kbps
Width : 592 pixels
Height : 320 pixels
Display aspect ratio : 1.850
Frame rate : 25.000 fps
Resolution : 24 bits
Colorimetry : 4:2:0
Scan type : Progressive
Bits/(Pixel*Frame) : 0.201
Stream size : 607 MiB (87%)
Writing library : XviD 1.2.1 (UTC 2008-12-04)

Audio
ID : 1
Format : MPEG Audio
Format version : Version 1
Format profile : Layer 3
Codec ID : 55
Codec ID/Hint : MP3
Duration : 1h 29mn
Bit rate mode : Variable
Bit rate : 133 Kbps
Nominal bit rate : 128 Kbps
Channel(s) : 2 channels
Sampling rate : 48.0 KHz
Resolution : 16 bits
Stream size : 84.7 MiB (12%)
Alignment : Aligned on interleaves
Interleave, duration : 24 ms (0.60 video frame [/code]


http://i38.tinypic.com/34hbbjr.jpg


http://www.youtube.com/watch?v=Dn96J1JLY9w

Related torrents

Torrent NameAddedSizeSeedLeechHealth
1 Year+ - in Movies4.73 GB10
1 Year+ - in Movies699.95 MB11
1 Year+ - in Movies692.47 MB34945
1 Year+ - in Movies692.47 MB104498
1 Year+ - in Other692.47 MB00

Comments (0 Comments)




Please login or create a FREE account to post comments

Latest Searches

| S04E12 Vikings hdtv | Kiley Jay Man Milk Cookies | underworld 5 hd | latina vs monster | THE CATCH season 1 720p | kardashians New Breast Friends | these lies | belle claire gang bang | hazes vriend | piece by piece kelly idol |