Quick Browse
Movies
TV shows
Music
Games
Applications
Anime
Other
Facebook
Advertising

Friends
Torrent Download
Movie4u
1337x.to
Torrent Downloads




Alien Resurrection 1997 (La Clonazione) [BDrip 720p - H264 - Ita Dts Eng Ac3 - MultiSub] TNT Village


    Seeders : 0      Leechers : 0

Trackers List

Tracker NameLast CheckStatusSeedersLeechers




Torrent File Content (1 file)


     (BluRay Rip. 720p x264 DVD2 -DTS Ita AC3 Eng + SubVob + Chap) ALIEN la clonazione .mkv -
2.19 GB



Description



TORRENT BY Pizza92
http://forum.tntvillage.scambioetico.org/tntforum/html/avatars/Visualizer_1/_27.png

Alien Resurrection 1997

http://img101.imageshack.us/img101/1430/alienresurrection1997bl.png



http://uptiki.com/images/hrwqzkz2kf66yo49ulu8.gif


Original Title: Alien Resurrection
Country: USA
Year: 1997
Gen: Action, Sci-Fi, Thriller
Language: English, Italian
Director: Jean-Pierre Jeunet

Produced by: Bill Badalat Gordon Carroll David Giler Walter Hill Sigourney Weaver

Cast: Sigourney Weaver: Ellen Ripley Winona Ryder: Call J.E. Freeman: Dott. Wren Dominique Pinon: Vriess Ron Perlman: Johner Gary Dourdan: Christie Dan Hedaya: Gen. Perez Brad Dourif: Dott. Gediman Raymond Cruz: Sold. Distephano Michael Wincott: Elgyn Kim Flowers: Hillard
[*]Leland Orser: Larry Purvis


http://uptiki.com/images/43ziy1c16sbm4u3g5t5.gif



ENG

Alien Resurrection is a science fiction film released in 1997 by 20th Century Fox. Directed by French filmmaker Jean-Pierre Jeunet, the film is based on a screenplay by Joss Whedon. With a budget of $70 million, Alien Resurrection was the first film in the Alien series to be filmed outside of England at Fox studios in Los Angeles, California.

Set 200 years after the preceding installment, Alien 3, Ellen Ripley (Sigourney Weaver) is cloned and an Alien queen is surgically removed from her body. The United Systems Military hopes to breed Aliens to study and research on the spaceship USM Auriga, using human hosts kidnapped and delivered to them by a group of mercenaries. The Aliens escape their enclosures, while Ripley and the mercenaries attempt to escape and destroy the Auriga before it reaches its destination, Earth.

Alien Resurrection was released on November 26, 1997 and received mixed reviews from film critics. Roger Ebert of the Chicago Sun-Times felt "there is not a single shot in the movie to fill one with wonder", while Desson Thomson of The Washington Post said the film "satisfactorily recycles the great surprises that made the first movie so powerful".


ITA

Duecento anni dopo essere morta in una astronave attrezzata a laboratorio Ellen Ripley Sigourney Weaver viene in qualche modo resuscitata grazie a un esperimento di clonazione Ma le cose non sono cos semplici e in Ripley si sono mescolate caratteristiche aliene Oltre a ci Ripley si rende conto che lo scopo della sua resurrezione quello di estrapolare la regina aliena che vive dentro di lei A peggiorare le cose le creature aliene allevate da scienziati privi di scrupoli scappano e cominciano a uccidere



http://uptiki.com/images/fqc9b8ixzqbozb5tylv7.gif


[code]
General

Complete name : (BluRay Rip. 720p x264 DVD2 -DTS Ita AC3 Eng + SubVob + Chap) ALIEN la clonazione .mkv
Format : Matroska
File size : 2.19 GiB
Duration : 1h 56mn
Overall bit rate : 2 694 Kbps
Encoded date : UTC 2011-03-09 14:52:13
Writing application : mkvmerge v4.4.0 ('Die Wiederkehr') built on Oct 31 2010 21:52:48
Writing library : libebml v1.0.0 + libmatroska v1.0.0

Video
ID : 1
Format : AVC
Format/Info : Advanced Video Codec
Format profile : [email protected]
Format settings, CABAC : Yes
Format settings, ReFrames : 4 frames
Codec ID : V_MPEG4/ISO/AVC
Duration : 1h 56mn
Bit rate : 1 280 Kbps
Width : 1 280 pixels
Height : 544 pixels
Display aspect ratio : 2.35:1
Frame rate : 23.976 fps
Color space : YUV
Chroma subsampling : 4:2:0
Bit depth : 8 bits
Scan type : Progressive
Bits/(Pixel*Frame) : 0.077
Stream size : 1.01 GiB (46%)
Title : Alian Resurrection


Audio #1
ID : 2
Format : DTS
Format/Info : Digital Theater Systems
Codec ID : A_DTS
Duration : 1h 56mn
Bit rate mode : Constant
Bit rate : 755 Kbps
Channel(s) : 6 channels
Channel positions : Front: L C R, Side: L R, LFE
Sampling rate : 48.0 KHz
Bit depth : 24 bits
Compression mode : Lossy
Stream size : 627 MiB (28%)
Title : DTS 5.1
Language : Italian

Audio #2
ID : 3
Format : AC-3
Format/Info : Audio Coding 3
Mode extension : CM (complete main)
Codec ID : A_AC3
Duration : 1h 56mn
Bit rate mode : Constant
Bit rate : 640 Kbps
Channel(s) : 6 channels
Channel positions : Front: L C R, Side: L R, LFE
Sampling rate : 48.0 KHz
Bit depth : 16 bits
Compression mode : Lossy
Stream size : 532 MiB (24%)
Title : Dolby Digital 5.1
Language : English

Text #1
ID : 4
Format : VobSub
Codec ID : S_VOBSUB
Codec ID/Info : The same subtitle format used on DVDs
Title : Ita (forced)
Language : Italian

Text #2
ID : 5
Format : VobSub
Codec ID : S_VOBSUB
Codec ID/Info : The same subtitle format used on DVDs
Title : Italiano
Language : Italian

Text #3
ID : 6
Format : VobSub
Codec ID : S_VOBSUB
Codec ID/Info : The same subtitle format used on DVDs
Title : English
Language : English
[/code]


http://uptiki.com/images/r78qgddjqle2nlh2ujwz.gif


[URL=http://img89.imageshack.us/i/immaginecp.png/]
http://img89.imageshack.us/img89/7761/immaginecp.th.png
[/URL] [URL=http://img863.imageshack.us/i/immagine2wf.png/]
http://img863.imageshack.us/img863/3753/immagine2wf.th.png
[/URL] [URL=http://img192.imageshack.us/i/immagine3vx.png/]
http://img192.imageshack.us/img192/6285/immagine3vx.th.png
[/URL]

[URL=http://img35.imageshack.us/i/immagine4fy.png/]
http://img35.imageshack.us/img35/5036/immagine4fy.th.png
[/URL] [URL=http://img709.imageshack.us/i/immagine5zv.png/]
http://img709.imageshack.us/img709/6919/immagine5zv.th.png
[/URL] [URL=http://img810.imageshack.us/i/immagine6f.png/]
http://img810.imageshack.us/img810/8959/immagine6f.th.png
[/URL]


[URL=http://www.imdb.com/title/tt0118583/]
http://img838.imageshack.us/img838/8369/imdblogo.png
[/URL]

Visit http://www.tntvillage.scambioetico.org
http://www.ahashare.com/images/smilies/wave.gif

Related torrents

Torrent NameAddedSizeSeedLeechHealth
1 Year+ - in Movies4.37 GB00
1 Year+ - in Movies12.33 GB913
Last Month - in TV shows20.69 GB00
4 months ago - in TV shows23.62 GB15
4 months ago - in TV shows11.56 GB734

Comments (0 Comments)




Please login or create a FREE account to post comments

Latest Searches

| jessica andrews best of | nick carter i | nyck caution understood | im a celebrity get me out of here s16e22 | fakings joana | the angels the dark room | the fosters 2013 s03e10 hdtv xvid fum ettv | propresenter 6 crack | woodmancastingx petra | revo uninstaller pro 2 0 1 |