Quick Browse
Movies
TV shows
Music
Games
Applications
Anime
Other
Facebook
Friends
Torrent Download
Movie4u
1337x.to
Torrent Downloads

Verified torrent Already Dead


    Seeders : 1      Leechers : 13
Hash :4FD9422C5406C596A6F526FFA11EC87F5CA14810
Added :1 Year+ by HannspreeVerified torrent uploader in Movies
Size :1.33 GB
Stream :WATCH ONLINE @ Movie4u


Already Dead
Anonymous and Direct Download 300GB+ free








Trackers List

Tracker NameLast CheckStatusSeedersLeechers




Torrent File Content (6 files)


Already Dead
    VIDEO_TS
          VIDEO_TS.BUP -
6 KB

          VIDEO_TS.IFO -
6 KB

          VTS_01_0.BUP -
60 KB

          VTS_01_0.IFO -
60 KB

          VTS_01_1.VOB -
1023.97 MB

          VTS_01_2.VOB -
336.84 MB



Description



===============================================================================================
MOVIE TITLE: Already Dead
LANGUAGE: English
MOVIE SUBS: No - (subtitles if/when required)
===============================================================================================
MOVIE DESC:

When Thomas Archer's happy & successful life is all but ruined following a horrific attack he is presented with a perfect opportunity
to exact physical revenge upon the man who caused all his grief. However the immediate consequences of his actions and
inactions are much more complicated than he imagined. Who will survive.
===============================================================================================
MOVIE SPECS:

GENERAL:
Complete name : Already Dead
File size : 1.32 GB
Duration : 94 Minutes
Overall bit rate : 1 978 Kbps

VIDEO:
ID : 224 (0xE0)
Format : MPEG Video
Format version : Version 2
Format profile : [email protected]
Format settings, BVOP : Yes
Format settings, Matrix : Default
Duration : 94 Minutes
Bit rate mode : Variable
Bit rate : 1 746 Kbps
Nominal bit rate : 8 808 Kbps
Width : 720 pixels
Height : 576 pixels
Display aspect ratio : 16:9
Frame rate : 24.000 fps
Standard : PAL
Color space : YUV
Chroma subsampling : 4:2:0
Bit depth : 8 bits
Scan type : Progressive
Scan order : 2:2:2:2:2:2:2:2:2:2:2:3 Pulldown
Bits/(Pixel*Frame) : 0.175
Stream size : 904 MiB (88%)

AUDIO:
ID : 128 (0x80)
Format : AC-3
Format/Info : Audio Coding 3
Mode extension : CM (complete main)
Duration : 94 Minutes
Bit rate mode : Constant
Bit rate : 192 Kbps
Channel(s) : 2 channels
Channel positions : Front: L R
Sampling rate : 48.0 KHz
Stream size : 99.4 MiB (10%)
===============================================================================================

Related torrents

Torrent NameAddedSizeSeedLeechHealth
Last Month - in Movies965.9 MB00
10 months ago - in Other364.29 KB00
1 Year+ - in Movies890.7 MB00
1 Year+ - in Other409.49 KB00
1 Year+ - in Movies1.23 GB11
1 Year+ - in Movies795.21 MB127

Comments (0 Comments)




Please login or create a FREE account to post comments

Latest Searches

| rae sremmurd gucci mane | Linkin Park point of authority | ponmuttayidunna tharavu 1988 | 1 years fall | Great Battles Of WWII Stalingrad RELOADED | headband b o b | My Cruel Stepsister CBT | Hairy Mom Fucks With Step son Without A Condom Roleplay XXX AdultP2P | april 18 1984 | gparted iso |