Quick Browse
Movies
TV shows
Music
Games
Applications
Anime
Other
Facebook
Advertising

Friends
Torrent Download
Movie4u
1337x.to
Torrent Downloads




Verified torrent Altitude 2010 DVDrip~XviD~Striker~TDA


    Seeders : 2      Leechers : 0
Hash :9643D054FBE85C9D1242FFEFDACD91C191C29FFF
Added :1 Year+ by striker123Verified torrent uploader in Movies
Size :706.05 MB
Stream :WATCH ONLINE @ Movie4u


Altitude 2010 DVDrip~XviD~Striker~TDA
Free and Fast Download with Usenet 300GB+ free







Trackers List

Tracker NameLast CheckStatusSeedersLeechers




Torrent File Content (5 files)


Altitude 2010 DVDrip~XviD~Striker~TDA
     Altitude 2010 DVDrip~XviD~Striker~TDA.avi -
705.29 MB

     TeamTDA.jpg -
681.47 KB

     Altitude 2010 DVDrip~XviD~Striker~TDA.srt -
90.43 KB

     More Movies.url -
112 bytes

     Tracked By DesiAdda.com.txt -
23 bytes



Description



http://www.imagefreeks.com/images/striker/altitudedvd.jpg


http://www.imagefreeks.com/images/striker/eamtdabanner.jpg


http://www.imagefreeks.com/images/striker/ileinfo.png


[CODE]
General

Format : AVI
Format/Info : Audio Video Interleave
File size : 705 MiB
Duration : 1h 30mn
Overall bit rate : 1 093 Kbps
Writing application : VirtualDubMod 1.5.4.1 (build 2178/release)
Writing library : VirtualDubMod build 2178/release

Video
ID : 0
Format : MPEG-4 Visual
Format profile : [email protected]
Format settings, BVOP : Yes
Format settings, QPel : No
Format settings, GMC : No warppoints
Format settings, Matrix : Custom
Codec ID : XVID
Codec ID/Hint : XviD
Duration : 1h 30mn
Bit rate : 895 Kbps
Width : 688 pixels
Height : 288 pixels
Display aspect ratio : 2.35:1
Frame rate : 23.976 fps
Resolution : 24 bits
Colorimetry : 4:2:0
Scan type : Progressive
Bits/(Pixel*Frame) : 0.188
Stream size : 577 MiB (82%)
Writing library : XviD 1.2.1 (UTC 2008-12-04)

Audio
ID : 1
Format : AC-3
Format/Info : Audio Coding 3
Codec ID : 2000
Duration : 1h 30mn
Bit rate mode : Constant
Bit rate : 192 Kbps
Channel(s) : 2 channels
Channel positions : L R
Sampling rate : 48.0 KHz
Stream size : 124 MiB (18%)
Alignment : Split accross interleaves
Interleave, duration : 96 ms (2.30 video frames)
Interleave, preload duration : 96 ms
Language : English


[/CODE]

http://www.imagefreeks.com/images/striker/screens.png


http://www.imagefreeks.com/images/striker/ltitude2010dvdripxvidstrikertda.jpg


http://www.imagefreeks.com/images/striker/ownload.png

Related torrents

Torrent NameAddedSizeSeedLeechHealth
Verified torrent
1 Year+ - in Movies730.5 MB10
Verified torrent
1 Year+ - in Movies701.96 MB23
1 Year+ - in Movies300.37 MB10
1 Year+ - in Movies1.28 GB526

Comments (0 Comments)




Please login or create a FREE account to post comments

Latest Searches

| Super Naturals 4 | abigail pornstar workout | top 4 songs 2015 | t i be eazy | atkgirlfriends klein | Sure 2 | Private Stella Cox Practices Anal in | Dark Chocolate 2016 Hindi 720p HDRip x264 AAC ESubs Downloadhub | private stella cox deception new september 27 2014 new | mix haddaway |