Quick Browse
Movies
TV shows
Music
Games
Applications
Anime
Other
Facebook
Advertising

Friends
Torrent Download
Movie4u
1337x.to
Torrent Downloads




Verified torrent Alvin An The Chipmunks Chip-Wrecked 2011 720p BRRip XviD AC3-26k


    Seeders : 2      Leechers : 5

Trackers List

Tracker NameLast CheckStatusSeedersLeechers




Torrent File Content (13 files)


Alvin An The Chipmunks Chip-Wrecked 720p BRRip XviD AC3-26k
     1.png -
1.47 MB

     2.png -
1.21 MB

     26k nfo.nfo -
3.65 KB

     3.png -
1.81 MB

     4.png -
917.13 KB

     Alvin An The Chipmunks Chip-Wrecked 720p BRRip XviD AC3-26k.avi -
2.22 GB

     Alvin An The Chipmunks Chip-Wrecked 720p BRRip XviD AC3-26k.jpg -
214.07 KB

     HDSceneRG.txt -
115 bytes

     Torrent downloaded from Demonoid.me.txt -
46 bytes

     Torrent downloaded from rarbg.com.txt.txt -
0 bytes

     YouTube Latest Releases And Archive.txt -
76 bytes

     att-networks.com.txt -
39 bytes

     sceneunderground.org.txt -
77 bytes



Description



http://img195.imageshack.us/img195/4619/alvinr.jpg

[code]

Alvin An The Chipmunks Chip-Wrecked 720p BRRip XviD AC3-26k


http://www.imdb.com/title/tt1615918/


Plot:
Playing around while aboard a cruise ship, the Chipmunks and Chipettes accidentally go overboard and

end up marooned in a tropical paradise. They discover their new turf is not as deserted as it seems.

Sources - Alvin and the Chipmunks Chip-Wrecked 2011 720p BluRay x264-Counterfeit.....Thanks :P



Format : AVI
Format/Info : Audio Video Interleave
Format profile : OpenDML
File size : 2.22 GiB
Duration : 1h 27mn
Overall bit rate : 3 652 Kbps
Writing library : VirtualDub build 32839/release

Video
ID : 0
Format : MPEG-4 Visual
Format profile : Advanced [email protected]
Format settings, BVOP : 2
Format settings, QPel : No
Format settings, GMC : No warppoints
Format settings, Matrix : Default (H.263)
Codec ID : XVID
Codec ID/Hint : XviD
Duration : 1h 27mn
Bit rate : 3 000 Kbps
Width : 1 280 pixels
Height : 688 pixels
Display aspect ratio : 1.860
Frame rate : 23.976 fps
Color space : YUV
Chroma subsampling : 4:2:0
Bit depth : 8 bits
Scan type : Progressive
Compression mode : Lossy
Bits/(Pixel*Frame) : 0.142
Stream size : 1.83 GiB (82%)
Writing library : XviD 1.2.1 (UTC 2008-12-04)

Audio
ID : 1
Format : AC-3
Format/Info : Audio Coding 3
Mode extension : CM (complete main)
Codec ID : 2000
Duration : 1h 27mn
Bit rate mode : Constant
Bit rate : 640 Kbps
Channel(s) : 6 channels
Channel positions : Front: L C R, Side: L R, LFE
Sampling rate : 48.0 KHz
Bit depth : 16 bits
Compression mode : Lossy
Stream size : 399 MiB (18%)
Alignment : Split accross interleaves
Interleave, duration : 42 ms (1.00 video frame)
Interleave, preload duration : 500 ms



Notes:
Did my thing.. turned out real nice....enjoy

[/code]

Screens:
http://i.imgur.com/kN7QK.jpg


http://img855.imageshack.us/img855/1699/98977653.png

http://img822.imageshack.us/img822/4369/96569968.png

http://img14.imageshack.us/img14/2218/alvinanthechipmunkschip.jpg

http://img708.imageshack.us/img708/3954/70297697.png


Greetz:
Xtreme Encode|FYA|ILLUMANTI|CM8|RX|VISI​ON|HDSCENE|xTriLL|DTRG|CRYS|REMIX​HD|BIDA|RX|REFILL|INSPiRAL|SIC|
|HO​PE|Anonymous|GooN|miRaGe
To all the people who have helped me you know who you are

Anything to offer email us @: [email protected]


http://img851.imageshack.us/img851/5503/26ks.jpg

Thank you smallz for banner!

Related torrents

Torrent NameAddedSizeSeedLeechHealth
Verified torrent
1 Year+ - in Movies1.6 GB10
1 Year+ - in Movies1.45 GB00
1 Year+ - in Other1.05 GB52
1 Year+ - in Movies4.36 GB217
1 Year+ - in Movies1.38 GB00

Comments (0 Comments)




Please login or create a FREE account to post comments

Latest Searches

| young like it big | quan my nigga | sleepy hollow s02e07 480p web dl reenc x264 xred | Carlisle b | ekdv 469 | Jack Reacher 2012 720p BluRay x264 Dual Audio Hindi Eng By Mx mkv | 2 fingers he | invader invader | TeensLikeItBig 16 11 30 Layla London My Stepdaughter Loves Porn XXX 1080p MP4 KTR | camtasia version 9 |