Quick Browse
Movies
TV shows
Music
Games
Applications
Anime
Other
Facebook
Advertising

Friends
Torrent Download
Movie4u
1337x.to
Torrent Downloads




Alvin And The Chipmunks: The Squeakquel (2009) NORARS


    Seeders : 417      Leechers : 34
Hash :D1A99698CF945E0FBB4AD4BE3F9BCF5D3E87AF2A
Added :1 Year+ in Movies
Size :484.61 MB
Stream :WATCH ONLINE @ Movie4u


Alvin And The Chipmunks: The Squeakquel (2009) NORARS
Free and Fast Download with Usenet 300GB+ free







Trackers List

Tracker NameLast CheckStatusSeedersLeechers




Torrent File Content (2 files)


Alvin And The Chipmunks 2 www.IWANNADOWNLOAD.com
     Alvin.And.The.Chipmunks.The.Squeakquel.[www.IWANNADOWNLOAD.com].avi -
484.61 MB

     www.iwannadownload.com.txt -
131 bytes



Description



Alvin And The Chipmunks: The Squeakquel (2009)
Video Sample:
http://www.movshare.net/video/0l1o6ijzhwnqh
http://www.imdb.com/title/tt1231580/

http://lookpic.com/i/82/jVxM6vkN.jpeg

http://lookpic.com/i/621/fDJ8ArLC.png

http://lookpic.com/i/147/1MuMprj.png

http://lookpic.com/i/429/zDa65TnD.png

http://lookpic.com/i/772/UZbw4F61.png

http://lookpic.com/i/923/nCxwCo9W.png


Format : AVI
Format/Info : Audio Video Interleave
File size : 485 MiB
Duration : 1h 22mn
Overall bit rate : 826 Kbps
Writing library : TMPGEnc 4.0 XPress Version. 4.2.3.193

Video
ID : 0
Format : MPEG-4 Visual
Format profile : [email protected]
Format settings, BVOP : Yes
Format settings, QPel : No
Format settings, GMC : No warppoints
Format settings, Matrix : Default (H.263)
Muxing mode : Packed bitstream
Codec ID : XVID
Codec ID/Hint : XviD
Duration : 1h 22mn
Bit rate : 557 Kbps
Width : 540 pixels
Height : 254 pixels
Display aspect ratio : 2.2:1
Frame rate : 25.000 fps
Resolution : 24 bits
Colorimetry : 4:2:0
Scan type : Progressive
Bits/(Pixel*Frame) : 0.162
Stream size : 327 MiB (67%)
Writing library : XviD 1.2.1 (UTC 2008-12-04)

Audio
ID : 1
Format : MPEG Audio
Format version : Version 1
Format profile : Layer 3
Codec ID : 55
Codec ID/Hint : MP3
Duration : 1h 22mn
Bit rate mode : Constant
Bit rate : 256 Kbps
Channel(s) : 2 channels
Sampling rate : 44.1 KHz
Resolution : 16 bits
Stream size : 150 MiB (31%)
Alignment : Aligned on interleaves
Interleave, duration : 40 ms (1.00 video frame)
Interleave, preload duration : 417 ms

Related torrents

Torrent NameAddedSizeSeedLeechHealth
6 months ago - in Movies3.66 GB00
1 Year+ - in Movies1.69 GB1017
1 Year+ - in Movies304.96 MB10
1 Year+ - in Movies4.37 GB8236
1 Year+ - in Movies736.57 MB1,29874

Comments (0 Comments)




Please login or create a FREE account to post comments

Latest Searches

| Champion Vs Champion Ariel X | Roots Manuva Bleeds | dorothy blue | new ish | the hunger games 2015 English | Three Mature | the r ita | simou | im lost in you | nikita season 1 episode 01 |