Quick Browse
Movies
TV shows
Music
Games
Applications
Anime
Other

Advertising

Friends
Torrents.me
Torrent Download
Free Movies
1337x
RARBG
Torrent Downloads

Alvin And The Chipmunks: The Squeakquel (2009) NORARS


    Seeders : 0      Leechers : 1

Hash :D1A99698CF945E0FBB4AD4BE3F9BCF5D3E87AF2A
Added :1 Year+ in Movies
Size :484.61 MB
Stream :Watch Online Full Movie @ Movie4u
Share :








Warning! Do not Download Torrents Without a VPN!
Your IP Address is .   And Location is
Your Internet Provider and Government can track your torrent Activity!  Hide your IP ADDRESS with a VPN!
We Strongly Recommend Using SpyOFF Torrent VPN to Anonymize your Torrenting. It's FREE for 15 Days!

Note :

Please Update (Trackers Info) Before Downloading Torrents to See Updated Seeders And Leechers for Batter Download Speed.

Trackers List

Tracker NameLast CheckStatusSeedersLeechers
udp://tracker.coppersurfer.tk:803 months agosuccess01
udp://9.rarbg.com:2710/announce3 months agosuccess01
http://tracker.trackerfix.com/announce3 months agosuccess00




Torrent File Content (2 files)


Alvin And The Chipmunks 2 www.IWANNADOWNLOAD.com
     Alvin.And.The.Chipmunks.The.Squeakquel.[www.IWANNADOWNLOAD.com].avi -
484.61 MB

     www.iwannadownload.com.txt -
131 bytes



Description



Alvin And The Chipmunks: The Squeakquel (2009)
Video Sample:
http://www.movshare.net/video/0l1o6ijzhwnqh
http://www.imdb.com/title/tt1231580/

http://lookpic.com/i/82/jVxM6vkN.jpeg

http://lookpic.com/i/621/fDJ8ArLC.png

http://lookpic.com/i/147/1MuMprj.png

http://lookpic.com/i/429/zDa65TnD.png

http://lookpic.com/i/772/UZbw4F61.png

http://lookpic.com/i/923/nCxwCo9W.png


Format : AVI
Format/Info : Audio Video Interleave
File size : 485 MiB
Duration : 1h 22mn
Overall bit rate : 826 Kbps
Writing library : TMPGEnc 4.0 XPress Version. 4.2.3.193

Video
ID : 0
Format : MPEG-4 Visual
Format profile : [email protected]
Format settings, BVOP : Yes
Format settings, QPel : No
Format settings, GMC : No warppoints
Format settings, Matrix : Default (H.263)
Muxing mode : Packed bitstream
Codec ID : XVID
Codec ID/Hint : XviD
Duration : 1h 22mn
Bit rate : 557 Kbps
Width : 540 pixels
Height : 254 pixels
Display aspect ratio : 2.2:1
Frame rate : 25.000 fps
Resolution : 24 bits
Colorimetry : 4:2:0
Scan type : Progressive
Bits/(Pixel*Frame) : 0.162
Stream size : 327 MiB (67%)
Writing library : XviD 1.2.1 (UTC 2008-12-04)

Audio
ID : 1
Format : MPEG Audio
Format version : Version 1
Format profile : Layer 3
Codec ID : 55
Codec ID/Hint : MP3
Duration : 1h 22mn
Bit rate mode : Constant
Bit rate : 256 Kbps
Channel(s) : 2 channels
Sampling rate : 44.1 KHz
Resolution : 16 bits
Stream size : 150 MiB (31%)
Alignment : Aligned on interleaves
Interleave, duration : 40 ms (1.00 video frame)
Interleave, preload duration : 417 ms

Related torrents

Torrent NameAddedSizeSeedLeechHealth
2 months ago - in Movies1.37 GB02
1 Year+ - in Movies3.66 GB00
1 Year+ - in Movies1.69 GB1017
1 Year+ - in Movies304.96 MB10
1 Year+ - in Movies4.37 GB8236

Note :

Feel free to post any comments about this torrent, including links to Subtitle, samples, screenshots, or any other relevant information. Please Dont Download anything from Comments, And Dont Post Links to Streaming Sites like Fmovies, Xmovies8, 123Movies, GoMovies, CMovieshd, Solarmovie, Watchfree, Putlockers, GoStream, m4ufree etc.

Comments (0 Comments)




Please login or create a FREE account to post comments

Latest Searches

| couger club 3 | Milfs Like it Big Nikki Capone A Late Night Visitor Brazzers 480p NEW May 13 2016 | Shades of grey all | Eveline Dellai 17 10 30 | monsters of metal 8 | selma | karate kid2010 | Hollywood dual audio hindi english Movies | puff daddy lll be m | newsroom sc s02e02 |