Quick Browse
Movies
TV shows
Music
Games
Applications
Anime
Other

Donate and Support

Friends
Torrents.me
Torrent Download
Free Movies
1337x
RARBG
Torrent Downloads

Alvin And The Chipmunks: The Squeakquel V2 IMAGINE NORARS


    Seeders : 19      Leechers : 6
Hash :2DB179A74A18738EF318D84E98BAAB60028CAA75
Added :1 Year+ in Movies
Size :1.76 GB
Stream :Watch Full Movies Online @ Movie4u
Share :


Alvin And The Chipmunks: The Squeakquel V2 IMAGINE NORARS
Anonymous and Direct Download 300GB+ free







Warning! Do not Download Torrents Without a VPN!
Your IP Address is .   And Location is
Your Internet Provider and Government can track your torrent Activity!  Hide your IP ADDRESS with a VPN!
We Strongly Recommend Using SpyOFF Torrent VPN to Anonymize your Torrenting. It's FREE For 15 Days!

Note :

Please Update (Trackers Info) Before Downloading Torrents to See Updated Seeders And Leechers for Batter Download Speed.

Trackers List

Tracker NameLast CheckStatusSeedersLeechers




Torrent File Content (2 files)


Alvin And The Chipmunks The Squeakquel V2 www.IWANNADOWNLOAD.com
     Alvin And The Chipmunks The Squeakquel V2 CAM [www.IWANNADOWNLOAD.com].avi -
1.72 GB

     Alvin And The Chipmunks The Squeakquel READNFO V2 CAM XVID - SAMPLE.avi -
34.14 MB



Description



Alvin And The Chipmunks The Squeakquel READNFO V2 CAM XVID IMAGiNE NORARS

Video Sample:
http://www.movshare.net/video/rfhm1rw5wl699

http://www.imdb.com/title/tt1231580/
http://i45.tinypic.com/25rmcsg.jpg

http://i48.tinypic.com/10p6b2t.jpg

http://i50.tinypic.com/209t569.jpg

http://i47.tinypic.com/2ihbabq.jpg


Video
ID : 0
Format : MPEG-4 Visual
Format profile : Advanced [email protected]
Format settings, BVOP : Yes
Format settings, QPel : No
Format settings, GMC : No warppoints
Format settings, Matrix : Default (MPEG)
Muxing mode : Packed bitstream
Codec ID : XVID
Codec ID/Hint : XviD
Duration : 1h 22mn
Bit rate : 2 864 Kbps
Width : 688 pixels
Height : 320 pixels
Display aspect ratio : 2.2
Frame rate : 29.970 fps
Resolution : 24 bits
Colorimetry : 4:2:0
Scan type : Progressive
Bits/(Pixel*Frame) : 0.434
Stream size : 1.64 GiB (95%)
Writing library : XviD 1.2.1 (UTC 2008-12-04)

Audio
ID : 1
Format : MPEG Audio
Format version : Version 1
Format profile : Layer 3
Codec ID : 55
Codec ID/Hint : MP3
Duration : 1h 22mn
Bit rate mode : Constant
Bit rate : 128 Kbps
Channel(s) : 2 channels
Sampling rate : 44.1 KHz
Resolution : 16 bits
Stream size : 75.2 MiB (4%)
Alignment : Split accross interleaves
Interleave, duration : 33 ms (1.00 video frame)
Interleave, preload duration : 500 ms



NOTES:

IMAGiNE bringing you another release.....
Right V2 of this already.....we had this going before devise released their release,but after comparing we thought it was
still worth releasing this as the video is alot better in our eyes.....Devises releases is good and is lot more less cropped,but
the colours is whacked and the sharpness and smoothness it worse(some migth disagree,but this is our opinion).

compare: hxxp://comparescreenshots.slicx.com/comparison/28827
This is no way slagging them or putting them down but just showing the difference so you the user can decide.
On the audio side....both are cam and on both you can hear people laughing in several parts.....but yet again i think this audio as
more life to it.

Right this is an re-encode of an xvid we was given by a friend,the video was a bit washed out and contained a flicker and also was
fullscreen with wrong AR.Audio is ok but needed some tweaking and cleaning.
Fixed all the above the best we could ...enjoy.
Oh reason for large file size is because we keep the bitrate the same as on the source we got so you didn't lose much quality,well little
as possible anyway.

Related torrents

Torrent NameAddedSizeSeedLeechHealth
19 days ago - in Other741.53 MB62
1 Year+ - in Movies484.61 MB41734
1 Year+ - in Movies1.51 GB156
1 Year+ - in Movies1.51 GB285
1 Year+ - in Movies1.52 GB146

Comments (0 Comments)




Please login or create a FREE account to post comments

Latest Searches

| gladiator 2000 1080p tigole | elsa jean in tiny sneaks boyfriend | louisiana Cajun | haley reed 17 06 02 | MAGIC HOUSE 1080P | TrikePatrol Real Filipina 130 | anna elias and the forlorn hope valleys in the flatlands 2011 | 2014 | AGE 3D 2014 DTS | A todo gas 8 2017 |