Quick Browse
Movies
TV shows
Music
Games
Applications
Anime
Other
Facebook
Advertising

Friends
Torrent Download
Movie4u
1337x.to
Torrent Downloads




Verified torrent Alvin and the Chipmunks Chipwrecked 2011 R5 READNFO XviD-26K


    Seeders : 0      Leechers : 0

Trackers List

Tracker NameLast CheckStatusSeedersLeechers




Torrent File Content (7 files)


Alvin and the Chipmunks Chipwrecked 2011 R5 READNFO XviD-26K
     Alvin and the Chipmunks Chipwrecked 2011 R5 READNFO XviD-26K.avi -
624.12 MB

     Alvin and the Chipmunks Chipwrecked 2011 R5 READNFO XviD-26K.nfo -
3.51 KB

     HDSceneRG.txt -
115 bytes

     Torrent downloaded from Demonoid.me.txt -
46 bytes

     att-networks.com.txt -
39 bytes

     sample.avi -
7.18 MB

     sceneunderground.org.txt -
77 bytes



Description



http://img834.imageshack.us/img834/4775/alvinz.jpg

[code]
Alvin and the Chipmunks Chipwrecked 2011 R5 READNFO XviD-26K

Imdb:
http://www.imdb.com/title/tt1615918/

Plot:
Playing around while aboard a cruise ship, the Chipmunks and Chipettes accidentally go overboard and end up marooned in a tropical paradise. They discover their new turf is not as deserted as it seems.

Sources:
RUSSIAN VIDEO THNXS!!
OWN audio as some of you guyz will know...

Notes:
READNFO WHY BECAUSE THE AUDIO GIVEN TO USE HAD ADVERTS IN WHICH NEEDED CUTTIN!!... THE AUDIO WAS NOT SO BAD...ENCODED VIDEO AND THE SYNCED THE AUDIO TO THE ENCODED VIDEO SO ENJOY!!!
PLUS IS IN SYNC BINGO ;)

Greetz:
Xtreme Encode|FYA|ILLUMANTI|CM8|RX|VISION|HDSCENE|NIGHTMAREZ|xTriLL|DTRG|CRYS|REMIXHD|BIDA|RX|REFILL|INSPiRAL|SIC|ZOMBIESZ|HOPE
To all the people who have helped me :P you know who you are

Anything to offer email us @: [email protected]

Video
ID : 0
Format : MPEG-4 Visual
Format profile : Advanced [email protected]
Format settings, BVOP : 1
Format settings, QPel : No
Format settings, GMC : No warppoints
Format settings, Matrix : Custom
Codec ID : XVID
Codec ID/Hint : XviD
Duration : 1h 29mn
Bit rate : 755 Kbps
Width : 720 pixels
Height : 400 pixels
Display aspect ratio : 16:9
Frame rate : 24.000 fps
Original frame rate : 25.000 fps
Color space : YUV
Chroma subsampling : 4:2:0
Bit depth : 8 bits
Scan type : Progressive
Compression mode : Lossy
Bits/(Pixel*Frame) : 0.109
Stream size : 482 MiB (77%)
Writing library : XviD 64

Audio
ID : 1
Format : MPEG Audio
Codec ID : 55
Codec ID/Hint : MP3
Duration : 1h 24mn
Bit rate : 224 Kbps
Channel(s) : 2 channels
Sampling rate : 44.1 KHz
Compression mode : Lossy
Stream size : 136 MiB (22%)
Alignment : Split accross interleaves
Interleave, duration : 44 ms (1.05 video frame)
Interleave, preload duration : 500 ms

[/code]
Screens:
http://img33.imageshack.us/img33/7717/vlcsnap2012012000h42m35.png

http://img259.imageshack.us/img259/6551/vlcsnap2012012000h42m45.png

http://img696.imageshack.us/img696/8974/vlcsnap2012012000h42m51.png

http://img825.imageshack.us/img825/2548/vlcsnap2012012000h42m55.png

http://img846.imageshack.us/img846/9210/vlcsnap2012012000h42m58.png

http://img23.imageshack.us/img23/4308/vlcsnap2012012000h43m12.png

http://img804.imageshack.us/img804/6118/vlcsnap2012012000h43m24.png


http://img851.imageshack.us/img851/5503/26ks.jpg

Thank you smallz for banner!

Related torrents

Torrent NameAddedSizeSeedLeechHealth
1 Year+ - in Movies624.12 MB00
Verified torrent
1 Year+ - in Movies1.25 GB00
1 Year+ - in Movies1.09 GB07
1 Year+ - in Movies1.09 GB00
1 Year+ - in Movies1.35 GB00

Comments (0 Comments)




Please login or create a FREE account to post comments

Latest Searches

| pet sematary 1 2 | CzechBangBus 16 12 05 BangBus 5 XXX 1080p MP4 KTR | g herbo lol Bibby | of a down discography | Ultravox b | dimitri vegas like mike bringing the madness | fl studio 12 4 final | angel wicky imageset | MomPov Cheetah from the Midwest does | michigan state vs alabama |