Quick Browse
Movies
TV shows
Music
Games
Applications
Anime
Other
Facebook
Advertising

Friends
Torrent Download
Movie4u
1337x.to
Torrent Downloads




Verified torrent Alvin and the Chipmunks Chipwrecked 2011 R5 REPACK XviD-26K


    Seeders : 0      Leechers : 0

Trackers List

Tracker NameLast CheckStatusSeedersLeechers




Torrent File Content (7 files)


Alvin and the Chipmunks Chipwrecked 2011 R5 REPACK XviD-26K
     Alvin and the Chipmunks Chipwrecked 2011 R5 REPACK XviD-26K.avi -
1.22 GB

     Alvin and the Chipmunks Chipwrecked 2011 R5 REPACK XviD-26K.nfo -
3.27 KB

     HDSceneRG.txt -
115 bytes

     Torrent downloaded from Demonoid.me.txt -
46 bytes

     att-networks.com.txt -
39 bytes

     sample.avi -
34.82 MB

     sceneunderground.org.txt -
77 bytes



Description



http://img834.imageshack.us/img834/4775/alvinz.jpg

[code]
Alvin and the Chipmunks Chipwrecked 2011 R5 REPACK XviD-26K

Imdb:
http://www.imdb.com/title/tt1615918/

Plot:
Playing around while aboard a cruise ship, the Chipmunks and Chipettes accidentally go overboard and end up marooned in a tropical paradise. They discover their new turf is not as deserted as it seems.

Sources:
RUSSIAN VIDEO THNXS!!
CAM/RUSSIAN AUDIO!

Notes:
Like said before... here is the repack!! larger video size filled the audio with russian audio for the songs :P so enjoy!! also that oos for 3 mins fixed :)
my last encode for this until retail comes so enjoy!

Greetz:
Xtreme Encode|FYA|ILLUMANTI|CM8|RX|VISION|HDSCENE|NIGHTMAREZ|xTriLL|DTRG|CRYS|REMIXHD|BIDA|RX|REFILL|INSPiRAL|SIC|ZOMBIESZ|HOPE
To all the people who have helped me :P you know who you are

Anything to offer email us @: [email protected]

Video
ID : 0
Format : MPEG-4 Visual
Format profile : Advanced [email protected]
Format settings, BVOP : 1
Format settings, QPel : No
Format settings, GMC : No warppoints
Format settings, Matrix : Custom
Codec ID : XVID
Codec ID/Hint : XviD
Duration : 1h 23mn
Bit rate : 1 953 Kbps
Width : 720 pixels
Height : 400 pixels
Display aspect ratio : 16:9
Frame rate : 25.000 fps
Color space : YUV
Chroma subsampling : 4:2:0
Bit depth : 8 bits
Scan type : Progressive
Compression mode : Lossy
Bits/(Pixel*Frame) : 0.271
Stream size : 1.14 GiB (94%)
Writing library : XviD 64

Audio
ID : 1
Format : MPEG Audio
Format version : Version 1
Format profile : Layer 3
Codec ID : 50
Duration : 1h 23mn
Bit rate mode : Constant
Bit rate : 128 Kbps
Channel(s) : 2 channels
Sampling rate : 44.1 KHz
Compression mode : Lossy
Stream size : 76.6 MiB (6%)
Alignment : Split accross interleaves
Interleave, duration : 16345 ms (408.63 video frames)

[/code]
Screens:
http://img842.imageshack.us/img842/4209/vlcsnap2012012012h09m56.png

http://img38.imageshack.us/img38/8443/vlcsnap2012012012h10m00.png

http://img820.imageshack.us/img820/4035/vlcsnap2012012012h10m13.png

http://img807.imageshack.us/img807/9018/vlcsnap2012012012h10m19.png


http://img851.imageshack.us/img851/5503/26ks.jpg

Thank you smallz for banner!

Related torrents

Torrent NameAddedSizeSeedLeechHealth
1 Year+ - in Movies624.12 MB00
Verified torrent
1 Year+ - in Movies631.3 MB00
1 Year+ - in Movies1.35 GB00
1 Comments
1 Year+ - in Movies760.42 MB7348
1 Year+ - in Movies1.34 GB00

Comments (0 Comments)




Please login or create a FREE account to post comments

Latest Searches

| 2009 el superbeasto | say we have nothing | ariana grande ft major lazer | Furnace book 4 | 1989 little mermaid | erotic my sister | warcraft bluray 1080p multi | Tyra Scott Christian | supernatural s 12 e 6 | foxit reader 8 1 1 |