Quick Browse
Movies
TV shows
Music
Games
Applications
Anime
Other

Donate and Support

Friends
Torrents.me
Torrent Download
Free Movies
1337x
RARBG
Torrent Downloads

Alvin et les Chipmunks 3 (2011) FRENCH TS XviD - IMAGiNE


    Seeders : 1      Leechers : 0
Hash :913C82D6391EBCD9892F7550F6934FA85B9A6900
Added :1 Year+ by L0LPLZVerified torrent uploader in Movies
Size :700.47 MB
Stream :Watch Full Movies Online @ Movie4u
Share :








Warning! Do not Download Torrents Without a VPN!
Your IP Address is .   And Location is
Your Internet Provider and Government can track your torrent Activity!  Hide your IP ADDRESS with a VPN!
We Strongly Recommend Using SpyOFF Torrent VPN to Anonymize your Torrenting. It's FREE For 15 Days!

Note :

Please Update (Trackers Info) Before Downloading Torrents to See Updated Seeders And Leechers for Batter Download Speed.

Trackers List

Tracker NameLast CheckStatusSeedersLeechers




Torrent File Content (5 files)


Alvin et les Chipmunks 3 (2011) FRENCH TS XviD - IMAGiNE
     Alvin et les Chipmunks 3 (2011) FRENCH TS XviD - IMAGiNE.rar -
700.46 MB

     Alvin et les Chipmunks 3 (2011) FRENCH TS XviD - IMAGiNE.nfo -
5.35 KB

     LISEZ MOI - Important.txt -
4.04 KB

     Torrent downloaded from Extratorrent.com.txt -
51 bytes

     Torrent downloaded from Demonoid.me.txt -
46 bytes



Description



Title: Alvin et les Chipmunks 3 (2011) FRENCH TS XviD - IMAGiNE
Format: Xvid

source:
Audio : SUCKIT - Merci beaucoup :P ;)
Video: RELIZLAB fichiers source - Merci également! ;) :P


Synopsis:
En vacances sur un bateau de croisière, Alvin, Simon, Théodore et les Chipettes font les 400 coups. Mais leurs bêtises vont les faire échouer tous les six sur une île paradisiaque, à première vue déserte.

Pendant que Dave essaie désespérément de les retrouver, une autre naufragée, Zoé, bien plus audacieuse et givrée que les Chipmunks, va les entrainer dans leur première grande aventure : un nouveau territoire, de nouveaux défis et de grosses frayeurs vont révéler les vrais caractères de nos chanteurs hors pairs préférés.

Video
ID : 0
Format : MPEG-4 Visual
Format profile : Advanced [email protected]
Format settings, BVOP : 2
Format settings, QPel : No
Format settings, GMC : No warppoints
Format settings, Matrix : Default (H.263)
Codec ID : XVID
Codec ID/Hint : XviD
Duration : 1h 30mn
Bit rate : 1 349 Kbps
Width : 720 pixels
Height : 304 pixels
Display aspect ratio : 2.35:1
Frame rate : 25.000 fps
Color space : YUV
Chroma subsampling : 4:2:0
Bit depth : 8 bits
Scan type : Progressive
Compression mode : Lossy
Bits/(Pixel*Frame) : 0.247
Stream size : 1.08 GiB (91%)

Audio
ID : 1
Format : MPEG Audio
Format version : Version 1
Format profile : Layer 3
Mode : Joint stereo
Mode extension : MS Stereo
Codec ID : 55
Codec ID/Hint : MP3
Duration : 1h 30mn
Bit rate mode : Constant
Bit rate : 128 Kbps
Channel(s) : 2 channels
Sampling rate : 44.1 KHz
Compression mode : Lossy
Stream size : 105 MiB (9%)
Alignment : Aligned on interleaves
Interleave, duration : 40 ms (1.00 video frame)
Writing library : LAME3.98r
Encoding settings : -m j -V 4 -q 2 -lowpass 17 -b 128



Salutations à Tout Ceux qui font leur possible pour soutenir le P2P Et La Scène ;)

Related torrents

Torrent NameAddedSizeSeedLeechHealth
3 months ago - in Movies702.93 MB00
3 months ago - in Other702.93 MB00
Verified torrent
1 Year+ - in Movies696.98 MB10
1 Year+ - in Movies929.49 MB00
Verified torrent
1 Year+ - in Movies706.05 MB10

Comments (0 Comments)




Please login or create a FREE account to post comments

Latest Searches

| sofia gucci 2014 divx | River Monsters S06E02 Jungle Terminator 480p HDTV x264 mSD | ITA Transformers Robots in Disguise | Dial M For Monkey bonobo | AL013 | MissaX Adriana Chechik Desperate Sister Gets Blackmailed V | sharknado 2013 english | Ryan Dolan Only love survives | dts x 264 | sweet game at the moment |