Quick Browse
Movies
TV shows
Music
Games
Applications
Anime
Other
Facebook
Advertising

Friends
Torrent Download
Movie4u
1337x.to
Torrent Downloads




Amelia.DVDRip.XviD-NeDiVx


    Seeders : 60      Leechers : 41
Hash :2CD9EDF36FCA5ECEC5F0FFBFA4CF3F81A8D32BA8
Added :1 Year+ in Movies
Size :711.03 MB
Stream :WATCH ONLINE @ Movie4u


Amelia.DVDRip.XviD-NeDiVx
Free and Fast Download with Usenet 300GB+ free







Trackers List

Tracker NameLast CheckStatusSeedersLeechers




Torrent File Content (4 files)


Amelia DVD www.IWANNADOWNLOAD.com
    Subs
          nedivx-amelia-subs.rar -
2.5 MB

          nedivx-amelia-subs.sfv -
33 bytes

     Amelia DVD www.IWANNADOWNLOAD.com.avi -
700.21 MB

     Sample.avi -
8.32 MB



Description



Filename:
Amelia.DVDRip.XviD-NeDiVx

http://i45.tinypic.com/vfh6jn.png

http://i46.tinypic.com/x4en1t.png

http://i50.tinypic.com/s49tf5.png

http://i49.tinypic.com/t0g4u9.png


http://www.imdb.com/title/tt1129445/

Format : AVI
Format/Info : Audio Video Interleave
File size : 700 MiB
Duration : 1h 51mn
Overall bit rate : 879 Kbps
Writing application : VirtualDubMod 1.5.10.3 | www.virtualdub-fr.org || (build 2550/release)
Writing library : VirtualDubMod build 2550/release

Video
ID : 0
Format : MPEG-4 Visual
Format profile : Advanced [email protected]
Format settings, BVOP : Yes
Format settings, QPel : No
Format settings, GMC : No warppoints
Format settings, Matrix : Default (H.263)
Muxing mode : Packed bitstream
Codec ID : XVID
Codec ID/Hint : XviD
Duration : 1h 51mn
Bit rate : 712 Kbps
Width : 640 pixels
Height : 272 pixels
Display aspect ratio : 2.35:1
Frame rate : 23.976 fps
Resolution : 8 bits
Colorimetry : 4:2:0
Scan type : Progressive
Bits/(Pixel*Frame) : 0.171
Stream size : 567 MiB (81%)
Writing library : XviD 1.3.0.dev55

Audio
ID : 1
Format : MPEG Audio
Format version : Version 1
Format profile : Layer 3
Mode : Joint stereo
Format_Settings_ModeExtension : MS Stereo
Codec ID : 55
Codec ID/Hint : MP3
Duration : 1h 51mn
Bit rate mode : Variable
Bit rate : 154 Kbps
Minimum bit rate : 128 Kbps
Channel(s) : 2 channels
Sampling rate : 48.0 KHz
Stream size : 123 MiB (18%)
Alignment : Aligned on interleaves
Interleave, duration : 24 ms (0.58 video frame)
Interleave, preload duration : 120 ms
Writing library : LAME3.98r
Encoding settings : -m j -V 3 -q 3 -lowpass 18 --vbr-old -b 128

Related torrents

Torrent NameAddedSizeSeedLeechHealth
1 Year+ - in Movies709.74 MB00
1 Year+ - in Movies702.72 MB61
1 Year+ - in Movies709.73 MB167
1 Year+ - in Movies700.21 MB00
1 Year+ - in Movies700.22 MB4416

Comments (0 Comments)




Please login or create a FREE account to post comments

Latest Searches

| PC RePack R G | Flaskepost fra P A Conspiracy of Faith 2016 | Health Nutrition March 2016by Robert | Troy Ave Bang Bang | female orgasm contractions real | jesse y j | lets fall | busty mom sexy | Troy Ave Bang Bang | shyla stylez hidden slut |