Quick Browse
Movies
TV shows
Music
Games
Applications
Anime
Other
Facebook
Advertising

Friends
Torrent Download
Movie4u
1337x.to
Torrent Downloads




Verified torrent American Beauty 1999 720p BRRip Hindi~3385VKSH


    Seeders : 0      Leechers : 0
Hash :CF741F2E75CEA78199B121961F6AF14F6B77B115
Added :1 Year+ by VKS3385Verified torrent uploader in Movies
Size :2.22 GB
Stream :WATCH ONLINE @ Movie4u


American Beauty 1999 720p BRRip Hindi~3385VKSH
Free and Fast Download with Usenet 300GB+ free







Trackers List

Tracker NameLast CheckStatusSeedersLeechers




Torrent File Content (3 files)


American Beauty 1999 720p BRRip Hindi
     10p0nid.jpg -
118.49 KB

     American Beauty 1999 720p BRRip Hindi.mkv -
2.21 GB

     Sample.mkv -
11.91 MB



Description



http://img340.imageshack.us/img340/1050/hddesirockers.png

http://img62.imageshack.us/img62/5382/roadsignphp.png


http://img52.imageshack.us/img52/2936/10p0nid.jpg


http://img836.imageshack.us/img836/3343/25ic0hd1.png


http://img230.imageshack.us/img230/6594/imgamericanbeauty3.jpg


Lester and Carolyn Burnham are on the outside, a perfect husband and wife, in a perfect house, in a perfect neighborhood. But inside, Lester is slipping deeper and deeper into a hopeless depression. He finally snaps when he becomes infatuated with one of his daughter's friends. Meanwhile, his daughter Jane is developing a happy friendship with a shy boy-next-door named Ricky, who lives with a homophobic father.

http://img714.imageshack.us/img714/4783/9k1gty1.png

Kevin Spacey ... Lester Burnham
Annette Bening ... Carolyn Burnham
Thora Birch ... Jane Burnham
Wes Bentley ... Ricky Fitts
Mena Suvari ... Angela Hayes
Chris Cooper ... Col. Frank Fitts, USMC
Peter Gallagher ... Buddy Kane
Allison Janney ... Barbara Fitts
Scott Bakula ... Jim Olmeyer
Sam Robards ... Jim Berkley
Barry Del Sherman ... Brad Dupree


http://i50.tinypic.com/zvbzx2.jpg


General
Complete name : American Beauty 1999 720p BRRip Hindi~3385VKSH
Format : Matroska
File size : 2.21 GiB
Duration : 1h 56mn
Overall bit rate : 2 713 Kbps
Encoded date : UTC 2010-09-21 17:26:19
Writing application : mkvmerge v4.2.0 ('No Talking') built on Jul 28 2010 18:38:23
Writing library : libebml v1.0.0 + libmatroska v1.0.0


http://img412.imageshack.us/img412/7057/imdb3.png

[size=3][url]http://www.imdb.com/title/tt0169547/[/url][/size]

http://img37.imageshack.us/img37/7218/vlcfile.png

Video
ID : 1
Format : AVC
Format/Info : Advanced Video Codec
Format profile : [email protected]
Format settings, CABAC : Yes
Format settings, ReFrames : 4 frames
Muxing mode : Container [email protected]
Codec ID : V_MPEG4/ISO/AVC
Duration : 1h 56mn
Bit rate : 2 541 Kbps
Width : 1 280 pixels
Height : 544 pixels
Display aspect ratio : 2.35:1
Frame rate : 25.000 fps
Original frame rate : 23.976 fps
Color space : YUV
Chroma subsampling : 4:2:0
Bit depth : 8 bits
Scan type : Progressive
Bits/(Pixel*Frame) : 0.146
Stream size : 2.11 GiB (96%)
Writing library : x264 core 104 r1677 19df41a


http://img248.imageshack.us/img248/6613/musicfile1.png

Audio
ID : 2
Format : MPEG Audio
Format version : Version 1
Format profile : Layer 3
Mode : Joint stereo
Mode extension : MS Stereo
Codec ID : A_MPEG/L3
Codec ID/Hint : MP3
Duration : 1h 56mn
Bit rate mode : Constant
Bit rate : 64.0 Kbps
Channel(s) : 2 channels
Sampling rate : 44.1 KHz
Video delay : 2s 0ms
Stream size : 53.3 MiB (2%)
Language : Hindi


http://i50.tinypic.com/2qtwdv8.jpg


http://img816.imageshack.us/img816/8273/americanbeauty1999720pb.jpg


http://img804.imageshack.us/img804/8273/americanbeauty1999720pb.jpg


http://img192.imageshack.us/img192/8273/americanbeauty1999720pb.jpg


http://img692.imageshack.us/img692/8273/americanbeauty1999720pb.jpg


http://img87.imageshack.us/img87/8273/americanbeauty1999720pb.jpg


http://img812.imageshack.us/img812/8273/americanbeauty1999720pb.jpg


[SIZE=5]Sample Included in the Torrent[/SIZE]

http://i49.tinypic.com/zoap2a.jpg


http://img690.imageshack.us/img690/2538/2s9d1cg.gif

http://i49.tinypic.com/28v8wmr.jpg


http://img205.imageshack.us/img205/91/15880378.png

http://img695.imageshack.us/img695/7097/6sdez7.gif

Related torrents

Torrent NameAddedSizeSeedLeechHealth
1 Year+ - in Movies961.32 MB044
1 Year+ - in Movies364.25 MB02
1 Year+ - in Movies2.21 GB01
1 Year+ - in Other1.05 GB00
1 Year+ - in Movies802.71 MB9493

Comments (0 Comments)




Please login or create a FREE account to post comments

Latest Searches

| fake agent tied up | Prelude Faune | uncen harumi | sexy babe | rod hits mp3 | kino no tabi english | wwe real story | galactica h265 | lossless player | urban tech house |