Quick Browse
Movies
TV shows
Music
Games
Applications
Anime
Other
Facebook
Advertising

Friends
Torrent Download
Movie4u
1337x.to
Torrent Downloads




Ana Carolina-Quartinho Vol.2[EacFLAC](Tntvillage)


    Seeders : 0      Leechers : 0
Hash :CF159C2D9AB1C97CCF3F0C97D7E698C191507C88
Added :1 Year+ by leoneneroVerified torrent uploader in Music - Music
Size :289.08 MB
Stream :WATCH ONLINE @ Movie4u


Ana Carolina-Quartinho Vol.2[EacFLAC](Tntvillage)
Free and Fast Download with Usenet 300GB+ free







Trackers List

Tracker NameLast CheckStatusSeedersLeechers




Torrent File Content (17 files)


4N4 C4R0L1N4-QU4RT1NH0 V0L.2
     01-Traccia 1.flac -
23.76 MB

     02-Traccia 2.flac -
31.96 MB

     03-Traccia 3.flac -
18.5 MB

     04-Traccia 4.flac -
33.88 MB

     05-Traccia 5.flac -
29.73 MB

     06-Traccia 6.flac -
26.07 MB

     07-Traccia 7.flac -
26.95 MB

     08-Traccia 8.flac -
8.83 MB

     09-Traccia 9.flac -
27.85 MB

     10-Traccia 10.flac -
30.02 MB

     11-Traccia 11.flac -
8.85 MB

     12-Traccia 12.flac -
22.58 MB

     4n4 C4r0l1n4 - D01s Qu4rt05 - Qu4rt1nh0.log -
6.27 KB

     4n4 C4r0l1n4 - D01s Qu4rt0s - Qu4rt1nh0.cue -
1.49 KB

     Dois Quartos - Quartinho.log -
6.27 KB

     folder.jpg -
85.35 KB

     playlist.m3u -
1.28 KB



Description





http://img585.imageshack.us/img585/841/anacarolinaquartinhovol.jpg

http://img717.imageshack.us/img717/841/anacarolinaquartinhovol.jpg

http://img190.imageshack.us/img190/206/anacarolinaquartinhovol.gif


Titolo:Ana Carolina: Quartinho Vol.2

Lingua: PORTOGHESE

Anno: 21 SETTEMBRE 2006

Genere:MPB

Etichetta: BMG

Durata:51:18



1 - La Critique (Instrumental) 5:20
2 - Entao Va Se Perder 5:41
3 - Carvao 3:52
4 - Manha 5:14
5 - Homens E Mulheres 4:45
6 - Corredores 4:58
7 - Sen Ti Mentos (Instrumental) 4:46
8 - Cantinho 2:16
9 - Eu Nao Paro 4:29
10 - Claridade 4:43
11 - Milhares De Sambas 1:58
12 - Eu Comi A Madona (Remix) 3:36

La prima volta che Ana Carolina include traccie strumentali nel suo lavoro. Mentre nel vol.1 si divertiva a cantare le sue musiche preferite con arrangiamenti direi pop, in questo CD lei lascia spazio a musiche pu armoniose, più romantoiche, più consoni al suo stile.
Un bel Cd, tutto da ascoltare pieno di arrangiamenti densi,armonicamente sofisticati.


ANA CAROLINA

Figlia d'arte è cresciuta ascoltando i grandi miti della musica brasiliana e internazionale come Chico Buarque, João Bosco, Maria Bethânia, Nina Simone, Björk, e Alanis Morissette.
Da ragazza suonava nei bar, poi decise di andare a Rio de Janeiro, dopo due settimane aveva ottenuto il suo primo contratto alla BMG.
Lo stile è quello della musica popolare brasiliana, in cui è unica, che le valse nel '99 la nomination ai Latin Grammy Awards. Una carriera in crescendo,sempre sull'onda della cresta.

lossless FLAC


Exact Audio Copy V1.0 beta 1 from 15. November 2010

EAC extraction logfile from 12. April 2011, 11:35

Ana Carolina / Dois Quartos - Quartinho

Used drive : HL-DT-STDVDRAM GSA-T40N Adapter: 0 ID: 0

Read mode : Secure
Utilize accurate stream : Yes
Defeat audio cache : No
Make use of C2 pointers : Yes

Read offset correction : 667
Overread into Lead-In and Lead-Out : No
Fill up missing offset samples with silence : Yes
Delete leading and trailing silent blocks : No
Null samples used in CRC calculations : No
Used interface : Native Win32 interface for Win NT & 2000

Used output format : User Defined Encoder
Selected bitrate : 768 kBit/s
Quality : High
Add ID3 tag : No
Command line compressor : c:\Users\leomarco\Contacts\Desktop\Exact Audio Copy\FLAC\FLAC.EXE
Additional command line options : -6 -V -T "ARTIST=%a" -T "TITLE=%t" -T "ALBUM=%g" -T "DATE=%y" -T "TRACKNUMBER=%n" -T "GENRE=%m" -T "COMMENT=%e" %j--picture="%i"%j %s -o %d


TOC of the extracted CD

Track | Start | Length | Start sector | End sector
---------------------------------------------------------
1 | 0:00.00 | 5:20.48 | 0 | 24047
2 | 5:20.48 | 5:41.52 | 24048 | 49674
3 | 11:02.25 | 3:25.41 | 49675 | 65090
4 | 14:27.66 | 5:14.20 | 65091 | 88660
5 | 19:42.11 | 4:45.02 | 88661 | 110037
6 | 24:27.13 | 4:58.68 | 110038 | 132455
7 | 29:26.06 | 4:46.32 | 132456 | 153937
8 | 34:12.38 | 2:16.26 | 153938 | 164163
9 | 36:28.64 | 4:29.26 | 164164 | 184364
10 | 40:58.15 | 4:43.47 | 184365 | 205636
11 | 45:41.62 | 1:58.62 | 205637 | 214548
12 | 47:40.49 | 3:36.13 | 214549 | 230761


Range status and errors

Selected range

Filename C:\Users\leomarco\Contacts\Desktop\Ana Carolina - Dois Quartos - Quartinho.Flac

Peak level 99.3 %
Extraction speed 0.9 X
Range quality 100.0 %
Test CRC CB9ED563
Copy CRC CB9ED563
Copy OK

No errors occurred


AccurateRip summary

Track 1 accurately ripped (confidence 2) [D796C89F]
Track 2 accurately ripped (confidence 2) [6644F293]
Track 3 accurately ripped (confidence 2) [8579B8E6]
Track 4 accurately ripped (confidence 2) [79691237]
Track 5 accurately ripped (confidence 2) [AEB6AF53]
Track 6 accurately ripped (confidence 2) [449BC453]
Track 7 accurately ripped (confidence 2) [03C1C8AD]
Track 8 accurately ripped (confidence 2) [E20E2014]
Track 9 accurately ripped (confidence 2) [5D1522B4]
Track 10 accurately ripped (confidence 2) [5590F21C]
Track 11 accurately ripped (confidence 2) [8348A3BE]
Track 12 accurately ripped (confidence 2) [61EA14E2]

All tracks accurately ripped

End of status report

==== Log checksum 165B9B2E79138E95DC588FA52E97DAA9058301B2FACC70D70FE51453EA67C038 ===

Per i primi 10: 24 su 24: 50/60 Kb/s

Related torrents

Torrent NameAddedSizeSeedLeechHealth
Verified torrent
1 Year+ - in Music240.77 MB117
1 Year+ - in Music98.63 MB00
Verified torrent
1 Year+ - in Music416.64 MB513
Verified torrent
1 Year+ - in Music391.75 MB352
1 Year+ - in Music356.68 MB171

Comments (0 Comments)




Please login or create a FREE account to post comments

Latest Searches

| t r u somebody watching me | avc total video | Busta rhymes feat swizz beats | Young 102 | Game of Thrones Season 1080p x265 10bit | Frisby Rats NIMH Robert | t r u Its like candy | crysis 2 1 9 crack rar | chelsea ted | dragon ball fullhd |