Quick Browse
Movies
TV shows
Music
Games
Applications
Anime
Other
Facebook
Advertising

Friends
Torrent Download
Movie4u
1337x.to
Torrent Downloads




And Brigitte Created Bardot - The Story Of - TVRip - WS - XViD-Greekadiko Release - English Subtitle


    Seeders : 0      Leechers : 0

Trackers List

Tracker NameLast CheckStatusSeedersLeechers




Torrent File Content (7 files)


Brigitte Bardot
     And Brigitte Created Bardot.avi -
398.8 MB

     And Brigitte Created Bardot_6.jpg -
32.05 KB

     And Brigitte Created Bardot.jpg -
27.24 KB

     And Brigitte Created Bardot_5.jpg -
24.53 KB

     And Brigitte Created Bardot_4.jpg -
22.33 KB

     And Brigitte Created Bardot_3.jpg -
19.6 KB

     And Brigitte Created Bardot_2.jpg -
18.97 KB



Description



Plot:

The story of Brigitte Bardot from her childhood until now. The film looks at her career, her relationship with Roger Vadim, Gunter Sachs and Serge Gainsbourg, her fame, her suicide attempts, her abandoning of the cinema and her campaigns for animal rights.


Country: France
Language: French, English
Subtitles: English
Genre: Documentary
Screen: WS



General
Complete name : And Brigitte Created Bardot.avi
Format : AVI
Format/Info : Audio Video Interleave
File size : 399 MiB
Duration : 52mn 8s
Overall bit rate : 1 069 Kbps
Writing application : VirtualDubMod 1.5.4.1 (build 2178/release)
Writing library : VirtualDubMod build 2178/release

Video
ID : 0
Format : MPEG-4 Visual
Format profile : Streaming [email protected]
Format settings, BVOP : Yes
Format settings, QPel : No
Format settings, GMC : No warppoints
Format settings, Matrix : Default (H.263)
Muxing mode : Packed bitstream
Codec ID : XVID
Codec ID/Hint : XviD
Duration : 52mn 8s
Bit rate : 933 Kbps
Width : 720 pixels
Height : 400 pixels
Display aspect ratio : 16/9
Frame rate : 29.970 fps
Resolution : 24 bits
Colorimetry : 4:2:0
Scan type : Progressive
Bits/(Pixel*Frame) : 0.108
Stream size : 348 MiB (87%)
Writing library : XviD 1.2.1 (UTC 2008-12-04)

Audio
ID : 1
Format : MPEG Audio
Format version : Version 1
Format profile : Layer 3
Codec ID : 55
Codec ID/Hint : MP3
Duration : 52mn 7s
Bit rate mode : Constant
Bit rate : 128 Kbps
Channel(s) : 2 channels
Sampling rate : 48.0 KHz
Resolution : 16 bits
Stream size : 47.7 MiB (12%)
Alignment : Aligned on interleaves
Interleave, duration : 67 ms (2.00 video frames)
Interleave, preload duration : 504 ms



Screenshots:

http://i50.tinypic.com/2rr7vp2.jpg


http://i45.tinypic.com/vgjvhs.jpg


http://i47.tinypic.com/293k375.jpg


http://i46.tinypic.com/26445u8.jpg


http://i50.tinypic.com/2ajni90.jpg


http://i50.tinypic.com/dq3cjk.jpg




Related torrents

Torrent NameAddedSizeSeedLeechHealth
1 Year+ - in Movies371.06 MB00
1 Year+ - in Movies850.37 MB00
1 Year+ - in Movies843.13 MB01
1 Year+ - in TV shows553.17 MB77
1 Year+ - in Other557.42 MB00

Comments (0 Comments)




Please login or create a FREE account to post comments

Latest Searches

| czech super models model 30 michaela 15 07 08 720p | porn Lorraine | The Vampire Diaries s07e18 | Cumming Cutie blake | Horus heresy 39 | TIPSTRUCKS | adobe cc 2017 photoshop mac | Bootleg Kings | a day to remember homesick rar | Tory Lanez 4 A M Flex |