Quick Browse
Movies
TV shows
Music
Games
Applications
Anime
Other
Facebook
Advertising

Friends
Torrent Download
Movie4u
1337x.to
Torrent Downloads




Angela Ro Ro-Acertei No Milenio[EacFlacCue](Tntvillage)


    Seeders : 0      Leechers : 0
Hash :A69547CC7ED75AA0DBB12620D29A9C87F4AB945F
Added :1 Year+ by leoneneroVerified torrent uploader in Music - Music
Size :335.93 MB
Stream :WATCH ONLINE @ Movie4u


Angela Ro Ro-Acertei No Milenio[EacFlacCue](Tntvillage)
Free and Fast Download with Usenet 300GB+ free







Trackers List

Tracker NameLast CheckStatusSeedersLeechers




Torrent File Content (16 files)


4ng3l4 R0-Ro - 4c3rt31 n0 M1l3n10
     01-Track1.flac -
23.97 MB

     02-Track2.flac -
13.73 MB

     03-Track3.flac -
19.94 MB

     04-Track4.flac -
28.89 MB

     05-Track5.flac -
27.96 MB

     06-Track6.flac -
25.86 MB

     07-Track7.flac -
39.14 MB

     08-Track8.flac -
34.37 MB

     09-Track9.flac -
18.53 MB

     10-Track10.flac -
23.93 MB

     11-Track11.flac -
24.6 MB

     12-Track12.flac -
25.45 MB

     13-Track13.flac -
29.53 MB

     4ng3l4 R0-Ro - 4c3rt31 n0 M1l3n10.cue -
1.71 KB

     4ng3l4 R0-Ro - 4c3rt31 n0 M1l3n10.log -
7.8 KB

     folder.jpg -
21.73 KB



Description



http://img820.imageshack.us/img820/7934/41pqzkk6wel.jpg

http://img585.imageshack.us/img585/3324/sansre1xxd.jpg


Titolo:Angela Ro Ro-Acertei No Milênio

Lingua:PORTOGHESE

Anno:21 AGOSTO 2000

Genere:MPB:Bossa Nova

Etichetta:Jam Music

Durata: 49:49

1 O cinema, a princesa e o mar (3:44)
2 Acertei no milênio (2:02)
3 Boemia do sono (2:57)
4 Sim, dói (4.06)
5 Viciei em você (4:09)
6 All of me (3:47)
7 Don't let me be misunderstood (5:37)
8 Gota d'água (5:00)
9 Coquinho (2:56)
10 Fila de ex-mulher (3:31)
11 Raiado de amor (3:23)
12 Garota Mata Hari (3:45)
13 50 anos (4:44)

Ângela Maria Diniz Gonçalves, più conosciuta come Ângela Rô Rô(Rio de Janeiro, 5 de dezembro de 1949) è una femme fatale della MPB, ex amante di Zizi Possi, manesca, irriverente, pluricarcerata per rissa e droga: insomma, proprio una ragazza per bene Ângela Ro Ro. Un'artista maudita che però sforna musica di grande qualità, quasi totalmente sconosciuta in Italia. Timbro molto particolare, il suo, che durante l'adolescenza le ha guadagnato l'appellativo "Ro Ro" a causa della sua voce grave e roca. Iniziò a suonare come professionista nei locali di Ipanema rielaborando i brani dei suoi artisti preferiti: Maysa, Jacques Brel e Ella Fitzgerald

Acertei no Milênio è il nono album registrato in studio della cantante brasiliana Ângela Rô Rô, lanciato nel 2000 dall'etichetta Jam Music della cantante e sua collega Jane Duboc. L' album segna il ritorno di Ângela Rô Rô nel mercato fonografico brasiliano. Il disco propone nove tracce inedite e quattro interpretazioni di canzoni celebri.
Il grande distacco sono le hits O Cinema, a Princesa e o Mar, Viciei em Você, Garota Mata Hari (tutte da lei composte) ed i classici americani All Of Me (Marks / Sinome), Don't Let Me Be Misunderstood (Marcus / Benjamim / Caldwel) e Gota D'água (Chico Buarque). Dato il successo dell'album, Ângela fu eletta dalla APCA miglior compositrice dell'anno.

Exact Audio Copy V1.0 beta 1 from 15. November 2010

EAC extraction logfile from 27. May 2011, 23:07

Angela Ro-Ro / Acertei no Milênio

Used drive : HL-DT-STDVDRAM GSA-T40N Adapter: 0 ID: 0

Read mode : Secure
Utilize accurate stream : Yes
Defeat audio cache : No
Make use of C2 pointers : Yes

Read offset correction : 667
Overread into Lead-In and Lead-Out : No
Fill up missing offset samples with silence : Yes
Delete leading and trailing silent blocks : No
Null samples used in CRC calculations : No
Used interface : Native Win32 interface for Win NT & 2000

Used output format : User Defined Encoder
Selected bitrate : 768 kBit/s
Quality : High
Add ID3 tag : No
Command line compressor : c:\Users\leomarco\Contacts\Desktop\Exact Audio Copy\FLAC\FLAC.EXE
Additional command line options : -6 -V -T "ARTIST=%a" -T "TITLE=%t" -T "ALBUM=%g" -T "DATE=%y" -T "TRACKNUMBER=%n" -T "GENRE=%m" -T "COMMENT=%e" %j--picture="%i"%j %s -o %d


TOC of the extracted CD

Track | Start | Length | Start sector | End sector
---------------------------------------------------------
1 | 0:00.00 | 3:44.60 | 0 | 16859
2 | 3:44.60 | 2:02.45 | 16860 | 26054
3 | 5:47.30 | 2:57.45 | 26055 | 39374
4 | 8:45.00 | 4:06.07 | 39375 | 57831
5 | 12:51.07 | 4:09.50 | 57832 | 76556
6 | 17:00.57 | 3:47.55 | 76557 | 93636
7 | 20:48.37 | 5:37.18 | 93637 | 118929
8 | 26:25.55 | 5:00.40 | 118930 | 141469
9 | 31:26.20 | 2:56.10 | 141470 | 154679
10 | 34:22.30 | 3:31.37 | 154680 | 170541
11 | 37:53.67 | 3:23.38 | 170542 | 185804
12 | 41:17.30 | 3:45.70 | 185805 | 202749
13 | 45:03.25 | 4:44.22 | 202750 | 224071


Range status and errors

Selected range

Filename C:\Users\leomarco\Contacts\Desktop\Angela Ro-Ro - Acertei no Milênio.flac

Peak level 100.0 %
Extraction speed 1.3 X
Range quality 100.0 %
Test CRC 898643B9
Copy CRC 898643B9
Copy OK

No errors occurred


AccurateRip summary

Track 1 cannot be verified as accurate (confidence 1) [C49A521D], AccurateRip returned [BDDD3D36]
Track 2 cannot be verified as accurate (confidence 1) [0124C0C9], AccurateRip returned [9FA34352]
Track 3 cannot be verified as accurate (confidence 1) [B20BF252], AccurateRip returned [6F83C3E7]
Track 4 cannot be verified as accurate (confidence 1) [B1DFAF3A], AccurateRip returned [B94DBF4E]
Track 5 cannot be verified as accurate (confidence 1) [CDC9D1B6], AccurateRip returned [EA9EDE7A]
Track 6 cannot be verified as accurate (confidence 1) [DAEAA4E1], AccurateRip returned [33064F5D]
Track 7 cannot be verified as accurate (confidence 1) [6879CDC1], AccurateRip returned [5338E406]
Track 8 cannot be verified as accurate (confidence 1) [D356A5CE], AccurateRip returned [678F0F7D]
Track 9 cannot be verified as accurate (confidence 1) [853B9390], AccurateRip returned [E30DA8EB]
Track 10 cannot be verified as accurate (confidence 1) [08ADCD4B], AccurateRip returned [EB2CAAE6]
Track 11 cannot be verified as accurate (confidence 1) [454B6E08], AccurateRip returned [762E73C3]
Track 12 cannot be verified as accurate (confidence 1) [F81CE223], AccurateRip returned [A9CEA1EB]
Track 13 cannot be verified as accurate (confidence 1) [017735E4], AccurateRip returned [BDA9B814]

No tracks could be verified as accurate
You may have a different pressing from the one(s) in the database

End of status report

==== Log checksum A88E70F5B343332E38EBB217B2739A0098E0FE4278B9222ED6E597B4E30CA523 ====


Per i primi 10: 24 su 24: 40/60 Kb/s

Related torrents

Torrent NameAddedSizeSeedLeechHealth
1 Year+ - in Music50.39 MB00
1 Year+ - in Music497.59 MB108
1 Year+ - in Music58.87 MB00
1 Year+ - in Music91.8 MB31
4 months ago - in TV shows350 MB74

Comments (0 Comments)




Please login or create a FREE account to post comments

Latest Searches

| justin timberlake jay z suit tie | Studio One 3 Professional v3 3 1 | Planet Earth II 1080p sharpysword | now I know dan lewis | 121016 322 | he ac | s d e dave east ft | babysitter morgan lee | 5287 | ty dolla sign ft trey songz wiz |