Quick Browse
Movies
TV shows
Music
Games
Applications
Anime
Other
Facebook
Advertising

Friends
Torrent Download
Movie4u
1337x.to
Torrent Downloads




Verified torrent Angoor (1982) Hindi DvD Rip Xvid [email protected]


    Seeders : 0      Leechers : 0

Trackers List

Tracker NameLast CheckStatusSeedersLeechers
http://pow7.com/announce1 Year+success00




Torrent File Content (4 files)


Angoor (1982) DvD - Rip - Xvid - { XMR }
     Angoor (1982) DvD - Rip - Xvid - { XMR }.avi -
927.44 MB

     Front.jpg -
110.44 KB

     2.JPG -
48.95 KB

     1.JPG -
41.68 KB



Description



[color=red][font=Georgia]General

Ripper : Rahul
Complete name : Angoor (1982)
Format : AVI
Format/Info : Audio Video Interleave
File size : 927 MiB
Duration : 2h 9mn
Overall bit rate : 1 001 Kbps
Movie name : Angoor
Writing application : MEncoder dev-SVN-r21190-4.1.1
Writing library : MPlayer

Video
ID : 0
Format : MPEG-4 Visual
Format profile : [email protected]
Format settings, BVOP : No
Format settings, QPel : No
Format settings, GMC : No warppoints
Format settings, Matrix : Default (H.263)
Codec ID : DIVX
Codec ID/Info : Project Mayo
Codec ID/Hint : DivX 4
Duration : 2h 9mn
Bit rate : 859 Kbps
Width : 480 pixels
Height : 360 pixels
Display aspect ratio : 4:3
Frame rate : 29.970 fps
Color space : YUV
Chroma subsampling : 4:2:0
Bit depth : 8 bits
Scan type : Progressive
Bits/(Pixel*Frame) : 0.166
Stream size : 796 MiB (86%)
Writing library : Lavc51.25.0

Audio
ID : 1
Format : MPEG Audio
Format version : Version 1
Format profile : Layer 3
Mode : Joint stereo
Mode extension : MS Stereo
Codec ID : 55
Codec ID/Hint : MP3
Duration : 2h 9mn
Bit rate mode : Constant
Bit rate : 128 Kbps
Channel(s) : 2 channels
Sampling rate : 48.0 KHz
Stream size : 119 MiB (13%)
[/font][/color]

http://img521.imageshack.us/img521/1263/e0o19h.jpg

Related torrents

Torrent NameAddedSizeSeedLeechHealth
Verified torrent
1 Year+ - in Movies1.36 GB05
1 Comments
1 Good
Verified torrent
1 Year+ - in Movies1.37 GB34
Verified torrent
1 Year+ - in Movies1.09 GB9465
Verified torrent
1 Year+ - in Movies1.39 GB00
Verified torrent
1 Year+ - in Movies1.37 GB10

Comments (1 comment)




Reddy
» Downloaded this torrent Downloaded this torrent » Voted Good Voted Good for this torrent for this torrent

Added 1 Year+
Good quality, subtitles also present. Thanks.
Please login or create a FREE account to post comments

Latest Searches

| Justin biber v | Kat Dahlia My Garden | knicks freddie gibbs | No Problem Lil Wayne 2 Chainz Chance The Rapper | FantomWorksSeason 1 | future utt | glasvegas 2011 euphoric heartbreak cbr320 | pdf | x art 14 04 04 caprice floating emotions imageset | Rick Steins Long thessaloniki |