Quick Browse
Movies
TV shows
Music
Games
Applications
Anime
Other

Donate and Support

Friends
Torrents.me
Torrent Download
Free Movies
1337x
RARBG
Torrent Downloads

Verified torrent Animals United 2010 DvDrip-MXMG


    Seeders : 1      Leechers : 0
Hash :AEB41CD78884DEA1A23DDB48CC14263704C17D29
Added :1 Year+ by MXMGVerified torrent uploader in Movies
Size :699.48 MB
Stream :Watch Full Movies Online @ Movie4u
Share :


Animals United 2010 DvDrip-MXMG
Anonymous and Direct Download 300GB+ free







Warning! Do not Download Torrents Without a VPN!
Your IP Address is .   And Location is
Your Internet Provider and Government can track your torrent Activity!  Hide your IP ADDRESS with a VPN!
We Strongly Recommend Using SpyOFF Torrent VPN to Anonymize your Torrenting. It's FREE For 15 Days!

Note :

Please Update (Trackers Info) Before Downloading Torrents to See Updated Seeders And Leechers for Batter Download Speed.

Trackers List

Tracker NameLast CheckStatusSeedersLeechers




Torrent File Content (4 files)


Animals United 2010 DvDrip-MXMG
     Animals United.avi -
699.47 MB

     MXMG.nfo -
2 KB

     Torrent downloaded from Demonoid.me.txt -
46 bytes

     Torrent downloaded from Silvertorrents.me.txt -
41 bytes



Description



http://img855.imageshack.us/img855/9494/blanko.png



http://img535.imageshack.us/img535/4906/mxmgtorrentstate.jpg


[quote]
Format : AVI
Format/Info : Audio Video Interleave
File size : 699 MiB
Duration : 1h 32mn
Overall bit rate : 1 054 Kbps
Writing application : VirtualDubMod 1.5.10.3 | www.virtualdub-fr.org || (build 2550/release)
Writing library : VirtualDubMod build 2550/release

Video
ID : 0
Format : MPEG-4 Visual
Format profile : Advanced [email protected]
Format settings, BVOP : 1
Format settings, QPel : No
Format settings, GMC : No warppoints
Format settings, Matrix : Default (H.263)
Codec ID : XVID
Codec ID/Hint : XviD
Duration : 1h 32mn
Bit rate : 917 Kbps
Width : 640 pixels
Height : 272 pixels
Display aspect ratio : 2.35:1
Frame rate : 23.976 fps
Color space : YUV
Chroma subsampling : 4:2:0
Bit depth : 8 bits
Scan type : Progressive
Compression mode : Lossy
Bits/(Pixel*Frame) : 0.220
Stream size : 608 MiB (87%)
Writing library : XviD 63

Audio
ID : 1
Format : MPEG Audio
Format version : Version 1
Format profile : Layer 3
Codec ID : 55
Codec ID/Hint : MP3
Duration : 1h 32mn
Bit rate mode : Constant
Bit rate : 128 Kbps
Channel(s) : 2 channels
Sampling rate : 44.1 KHz
Compression mode : Lossy
Stream size : 84.9 MiB (12%)
Alignment : Split accross interleaves
Interleave, duration : 42 ms (1.00 video frame)
Interleave, preload duration : 500 ms
Writing library : LAME3.98r
Encoding settings : -m s -V 4 -q 2 -lowpass 17 -b 128
[/quote]


Screens :
http://img851.imageshack.us/img851/8848/screenshot2011042222h09.png


http://img854.imageshack.us/img854/4592/screenshot2011042222h14.png


http://img155.imageshack.us/img155/7080/screenshot2011042222h12.png


http://img263.imageshack.us/img263/1630/screenshot2011042222h13.png





[quote]
# Latest codecs used to deliver Top Quality Releases
# Seeded at high speeds to grant super Download speeds
# All DivX/XviD Players compatible and also PS3, Popcorn Hour, WD & XBOX 360*
[/quote]

[code]
Seedboxes provided by http://www.chociz.com/
A seedbox is a private dedicated server used for the uploading and downloading of digital files.
Speed - You can sit back, relax and watch in amazement at how fast the torrents finish.
Secure and Safe - With a seedbox, you don’t even need to use a BitTorrent client on your home computer!
Use Private Trackers - You can register @ Private Trackers and seed like Hell!

Get a Cheap Seedbox choosing for your taste - [url]http://www.chociz.com/whmcs/cart.php[/url]
[/code]


Related torrents

Torrent NameAddedSizeSeedLeechHealth
1 Year+ - in Movies1.59 GB00
1 Year+ - in Movies12.04 GB00
1 Year+ - in Movies4.45 GB00
1 Year+ - in Movies760.05 MB00
1 Year+ - in Movies694.82 MB00

Comments (0 Comments)




Please login or create a FREE account to post comments

Latest Searches

| final destination br | Were are u | alice doesnt live here anymore 1974 dvdrip avi | The Powerpuff Girls S02E08 | the mist s01e04 1080p webrip aac2 0 x264 cleaned mkv | Tory Lanez Lost Cause | Rave un2 the Year 2000 2000 | time machine 2017 | logic os x 10 3 | filming udemy |