Quick Browse
Movies
TV shows
Music
Games
Applications
Anime
Other
Facebook
Advertising

Friends
Torrent Download
Movie4u
1337x.to
Torrent Downloads




Verified torrent Anonymous 2011 720p BRRip XviD AC3-26k


    Seeders : 1      Leechers : 0
Hash :64C1ED8BBA21987D244A38179085E55CB6C27B10
Added :1 Year+ by memory100Verified torrent uploader in Movies
Size :2.92 GB
Stream :WATCH ONLINE @ Movie4u


Anonymous 2011 720p BRRip XviD AC3-26k
Free and Fast Download with Usenet 300GB+ free







Trackers List

Tracker NameLast CheckStatusSeedersLeechers




Torrent File Content (13 files)


Anonymous 2011 720p BRRip XviD AC3-26k
     1.png -
459.46 KB

     2.png -
719.16 KB

     26k nfo.nfo -
3.58 KB

     3.png -
903.42 KB

     4.png -
370.81 KB

     Anonymous 2011 720p BRRip XviD AC3-26k.avi -
2.91 GB

     Anonymous 2011 720p BRRip XviD AC3-26k.jpg -
125.35 KB

     HDSceneRG.txt -
115 bytes

     Torrent downloaded from Demonoid.me.txt -
46 bytes

     Torrent downloaded from rarbg.com.txt.txt -
0 bytes

     YouTube Latest Releases And Archive.txt -
76 bytes

     att-networks.com.txt -
39 bytes

     sceneunderground.org.txt -
77 bytes



Description



http://img32.imageshack.us/img32/6394/anonln.jpg

[code]

Anonymous 2011 720p BRRip XviD AC3-26k

http://www.imdb.com/title/tt1521197/

Plot:
The theory that it was in fact Edward De Vere, Earl of Oxford, who penned Shakespeare's plays.
Set against the backdrop of the succession of Queen Elizabeth I and the Essex rebellion against her.

Sources - Anonymous.2011.720p.BluRay.x264-SPARKS.....Thanks :P

ormat : AVI
Format/Info : Audio Video Interleave
Format profile : OpenDML
File size : 2.91 GiB
Duration : 2h 9mn
Overall bit rate : 3 209 Kbps
Writing library : VirtualDub build 32839/release

Video
ID : 0
Format : MPEG-4 Visual
Format profile : Advanced [email protected]
Format settings, BVOP : 2
Format settings, QPel : No
Format settings, GMC : No warppoints
Format settings, Matrix : Default (H.263)
Codec ID : XVID
Codec ID/Hint : XviD
Duration : 2h 9mn
Bit rate : 2 558 Kbps
Width : 1 280 pixels
Height : 560 pixels
Display aspect ratio : 2.25:1
Frame rate : 23.976 fps
Color space : YUV
Chroma subsampling : 4:2:0
Bit depth : 8 bits
Scan type : Progressive
Compression mode : Lossy
Bits/(Pixel*Frame) : 0.149
Stream size : 2.32 GiB (80%)
Writing library : XviD 1.2.1 (UTC 2008-12-04)

Audio
ID : 1
Format : AC-3
Format/Info : Audio Coding 3
Mode extension : CM (complete main)
Codec ID : 2000
Duration : 2h 9mn
Bit rate mode : Constant
Bit rate : 640 Kbps
Channel(s) : 6 channels
Channel positions : Front: L C R, Side: L R, LFE
Sampling rate : 48.0 KHz
Bit depth : 16 bits
Compression mode : Lossy
Stream size : 595 MiB (20%)
Alignment : Split accross interleaves
Interleave, duration : 42 ms (1.00 video frame)
Interleave, preload duration : 500 ms




Notes -

Did my thing... turned out real nice...enjoy

[/code]

Screens:
http://i.imgur.com/xV55S.png

http://i.imgur.com/YvDuV.png

http://img252.imageshack.us/img252/7101/85575344.png

http://img18.imageshack.us/img18/7594/68070732.png

http://img196.imageshack.us/img196/2530/anonymous2011720pbrripx.jpg


Greetz:
Xtreme Encode|FYA|ILLUMANTI|CM8|RX|VISI​ON|HDSCENE|xTriLL|DTRG|CRYS|REMIX​HD|BIDA|RX|REFILL|INSPiRAL|SIC|
|HO​PE|Anonymous|GooN|miRaGe
To all the people who have helped me you know who you are

Anything to offer email us @: [email protected]


http://img851.imageshack.us/img851/5503/26ks.jpg

Thank you smallz for banner!

Related torrents

Torrent NameAddedSizeSeedLeechHealth
Verified torrent
1 Year+ - in Movies2.39 GB00
1 Year+ - in Movies3.34 GB317125
1 Year+ - in Movies2.09 GB00
7 months ago - in Movies2.47 GB00
1 Good
Verified torrent
1 Year+ - in Movies2.27 GB00

Comments (0 Comments)




Please login or create a FREE account to post comments

Latest Searches

| teen wolf s04e09 dd5 1 | MP3 RELEASE 2016 | Fantasy Massage Britney Amber Kagney Linn Karter Family Nuru | ab soul do | Season 1 west world | The Young Pope S01E05 1080p HDTV x264 ExYu Subs HC | SixxA M Life Is Beautiful | Holistic Detective Agency 8 | planet earth II s01e04 1080p x264 | house of cards season 4 |