Quick Browse
Movies
TV shows
Music
Games
Applications
Anime
Other
Facebook
Advertising

Friends
Torrent Download
Movie4u
1337x.to
Torrent Downloads




Verified torrent Another Thin Man (1939) - Si Riparla Dell'Uomo Ombra [XviD - Italian English Ac3 - Sub Ita Eng] MIRCrew [TNT Village]


    Seeders : 1      Leechers : 0

Trackers List

Tracker NameLast CheckStatusSeedersLeechers




Torrent File Content (3 files)


Si Riparla Dell'Uomo Ombra - Another Thin Man (1939)
     Si Riparla Dell'Uomo Ombra - Another Thin Man (1939).avi -
1.46 GB

     Si Riparla Dell'Uomo Ombra - Another Thin Man (1939).idx -
221.87 KB

     Si Riparla Dell'Uomo Ombra - Another Thin Man (1939).sub -
14.74 MB



Description



Another Thin Man (1939) - Si Riparla Dell'Uomo Ombra [XviD - Italian English Ac3 - Sub Ita Eng] MIRCrew [TNT Village]


Si Riparla Dell'Uomo Ombra - Another Thin Man (1939) [XviD - Italian English Ac3 - Sub Ita Eng] MIRCrew [TNT Village]


[color=#663300]
http://img706.imageshack.us/img706/5530/mircreworiginal.gif



Si Riparla Dell'Uomo Ombra - Another Thin Man (1939)



L'Uomo Ombra - The Thin Man (1934) [XviD - Ita Eng Ac3 - Sub Ita Eng]

Dopo L'Uomo Ombra - After The Thin Man (1936)

Si Riparla Dell'Uomo Ombra - Another Thin Man (1939)[/URL]

L'Ombra Dell'Uomo Ombra - Shadow of the Thin Man (1941)

L'Uomo Ombra Torna A Casa - The Thin Man Goes Home (1945)

Il Canto Dell'Uomo Ombra - Song Of The Thin Man (1947)


[URL=http://www.imdb.com/title/tt0031047/]
http://img197.imageshack.us/img197/1332/imdblogo.gif
[/URL]

http://i752.photobucket.com/albums/xx170/robbyrs/Another_Thin_Man_1939_-_English_f.jpg


http://img128.imageshack.us/img128/3562/schedafilmrb.gif


Titolo originale Another Thin Man
Lingua originale Inglese
Paese di produzione USA
Anno 1939
Durata 105 min.
Colore B/N
Genere commedia, avventura
Regia W.S. Van Dyke
Soggetto Dashiell Hammett
Sceneggiatura Frances Goodrich e Albert Hackett
Produttore Hunt Stomberg
Fotografia William H. Daniels e Oliver T. Marsh
Montaggio Fredrick Y. Smith
Musiche Edward Ward
Scenografia Cedric Gibbons

Secondo episodio della fortunata serie de "L'uomo ombra"

http://i752.photobucket.com/albums/xx170/robbyrs/SI_PARLA_DELL_UOMO_OMBRA.jpg


http://i752.photobucket.com/albums/xx170/robbyrs/vlcsnap-2012-12-23-12h06m02s113.jpg


http://img825.imageshack.us/img825/3978/ringraziare.gif



http://img845.imageshack.us/img845/7838/cast.gif


William Powell: Nick Charles
Myrna Loy: Nora Charles
Virginia Grey: Lois MacFay / Linda Mills
William A. Poulsen: Nick Charles jr.
C. Aubrey Smith: Colonnello Burr Mc Fay
Otto Kruger: Van Slack
Ruth Hussey: Dorothy Waters
Patric Knowles: Dudley Horn

http://i752.photobucket.com/albums/xx170/robbyrs/vlcsnap-2012-12-23-12h06m09s181.jpg



http://img222.imageshack.us/img222/4740/trama.gif


Nick Charles e sua moglie Nora, con l'inseparabile cane Asta e il figlio Nick Charles Jr., sono alle prese con l'indagine dell'assassinio di un colonnello, proprietario della cui casa di

campagna dove sono ospiti.........


Storyline

In this adaptation of Dashiell Hammett's "The Farewell Murder", Nick and Nora (and their dog Asta) visit the estate of Col. MacFay, who is being threatened by a mysterious man wanting

revenge for a past injustice. When MacFay is murdered, that man is the obvious suspect- maybe too obvious...

http://i752.photobucket.com/albums/xx170/robbyrs/vlcsnap-2012-12-23-12h05m54s32.jpg




http://img245.imageshack.us/img245/3893/datifile.gif



General
Complete name :Si Riparla Dell'Uomo Ombra - Another Thin Man (1939)\Si Riparla Dell'Uomo Ombra - Another Thin Man (1939).avi
Format : AVI
Format/Info : Audio Video Interleave
File size : 1.46 GiB
Duration : 1h 38mn
Overall bit rate : 2 119 Kbps
Writing application : VirtualDubMod 1.5.4.1 (build 2178/release)
Writing library : VirtualDubMod build 2178/release

Video
ID : 0
Format : MPEG-4 Visual
Format profile : Advanced [email protected]
Format settings, BVOP : Yes
Format settings, QPel : No
Format settings, GMC : No warppoints
Format settings, Matrix : Custom
Codec ID : XVID
Codec ID/Hint : XviD
Duration : 1h 38mn
Bit rate : 1 726 Kbps
Width : 672 pixels
Height : 512 pixels
Display aspect ratio : 4:3
Frame rate : 25.000 fps
Color space : YUV
Chroma subsampling : 4:2:0
Bit depth : 8 bits
Scan type : Progressive
Bits/(Pixel*Frame) : 0.201
Stream size : 1.19 GiB (81%)
Writing library : XviD 1.2.1 (UTC 2008-12-04)

Audio #1
ID : 1
Format : AC-3
Format/Info : Audio Coding 3
Mode extension : CM (complete main)
Codec ID : 2000
Duration : 1h 38mn
Bit rate mode : Constant
Bit rate : 192 Kbps
Channel(s) : 1 channel
Channel positions : Front: C
Sampling rate : 48.0 KHz
Bit depth : 16 bits
Video delay : 8ms
Stream size : 135 MiB (9%)
Alignment : Split accross interleaves
Interleave, duration : 96 ms (2.40 video frames)
Interleave, preload duration : 96 ms
Language : Italian

Audio #2
ID : 2
Format : AC-3
Format/Info : Audio Coding 3
Mode extension : CM (complete main)
Codec ID : 2000
Duration : 1h 38mn
Bit rate mode : Constant
Bit rate : 192 Kbps
Channel(s) : 1 channel
Channel positions : Front: C
Sampling rate : 48.0 KHz
Bit depth : 16 bits
Video delay : 8ms
Stream size : 135 MiB (9%)
Alignment : Split accross interleaves
Interleave, duration : 96 ms (2.40 video frames)
Interleave, preload duration : 96 ms
Language : English


http://img40.imageshack.us/img40/2121/avrhgfsq3ik77m3offo0.gif






[/color]

Related torrents

Torrent NameAddedSizeSeedLeechHealth
Verified torrent
1 Year+ - in Movies1.39 GB10
Verified torrent
1 Year+ - in Movies1.39 GB10
Verified torrent
1 Year+ - in Movies1.38 GB437
Verified torrent
1 Year+ - in Movies1.91 GB1717
Verified torrent
1 Year+ - in Movies1.42 GB251

Comments (0 Comments)




Please login or create a FREE account to post comments

Latest Searches

| roy wood drama feat drake | ENGLISH DUEL 2016 | hegre art valerie self love hd 1080p | aquasoft slideshow ultimate 8 crack | Rihanna Dont Stop The Music | The Magnificent 1080p | for greater glory the true story of cristiada 2012 french dvdrip xvid ac3 prem | Gale Force | pavtube hd video converter v4 2 0 4076 winall incl keygen | barbie fairytopia magic of the rainbow |