Quick Browse
Movies
TV shows
Music
Games
Applications
Anime
Other

Donate and Support

Friends
Torrents.me
Torrent Download
Free Movies
1337x
RARBG
Torrent Downloads

Apne Paraye 1980 DvDrip 1.40GB AVI ~ Family | Comedy ~ [RdY]


    Seeders : 1      Leechers : 7
Hash :D03A5EAB627602D386E0FADF5F9F1B9461F36B0D
Added :1 Year+ by ilyas2000pk in Movies
Size :1.4 GB
Stream :Watch Full Movies Online @ Movie4u
Share :


Apne Paraye 1980 DvDrip 1.40GB AVI ~ Family | Comedy ~ [RdY]
Anonymous and Direct Download 300GB+ free







Warning! Do not Download Torrents Without a VPN!
Your IP Address is .   And Location is
Your Internet Provider and Government can track your torrent Activity!  Hide your IP ADDRESS with a VPN!
We Strongly Recommend Using SpyOFF Torrent VPN to Anonymize your Torrenting. It's FREE For 15 Days!

Note :

Please Update (Trackers Info) Before Downloading Torrents to See Updated Seeders And Leechers for Batter Download Speed.

Trackers List

Tracker NameLast CheckStatusSeedersLeechers




Torrent File Content (1 file)


     Apne Paraye 1980 DvDrip 1.40GB AVI ~ Family Comedy ~ [RdY].avi -
1.4 GB



Description



Amol Palekar ... Chandranath aka Chander 
Shabana Azmi ... Sheila
Ashalata ... Sidheshwari
Girish Karnad ... Advocate Harish
Utpal Dutt ... Advocate
Bharati Achrekar ... Naintara
Moonesha ... Neela



Complete Name : Apne Paraye 1980 DvDrip 1.40GB AVI ~ Family | Comedy ~ [RdY]
General
Format : AVI
Format/Info : Audio Video Interleave
File size : 1.40 GiB
Duration : 2h 11mn
Overall bit rate : 1 525 Kbps
Writing application : VirtualDubMod 1.5.10.2 (build 2540/release)
Writing library : VirtualDubMod build 2540/release

Video
Format : MPEG-4 Visual
Format profile : Streaming [email protected]
Format settings, BVOP : Yes
Format settings, QPel : No
Format settings, GMC : No warppoints
Format settings, Matrix : Default
Muxing mode : Packed bitstream
Codec ID : XVID
Codec ID/Hint : XviD
Duration : 2h 11mn
Bit rate : 1 289 Kbps
Width : 640 pixels
Height : 480 pixels
Display aspect ratio : 4/3
Frame rate : 29.970 fps
Resolution : 24 bits
Colorimetry : 4:2:0
Scan type : Progressive
Bits/(Pixel*Frame) : 0.140
Stream size : 1.18 GiB (85%)
Writing library : XviD 1.1.2 (UTC 2006-11-01)

Audio
Format : MPEG Audio
Codec ID : 55
Codec ID/Hint : MP3
Duration : 2h 11mn
Bit rate : 224 Kbps
Channel(s) : 2 channels
Sampling rate : 48.0 KHz
Stream size : 211 MiB (15%)
Alignment : Aligned on interleaves
Interleave, duration : 33 ms (1.00 video frame)
Interleave, preload duration : 504




Basu Chatterjee ... Director
Lata Mangeshkar ... Singer
Asha Bhosle ... Singer
K.J. Yesudas ... Singer
Kishore Kumar ... Singer
Bappi Lahiri ... Music Director
K.K. Mahajan ... Cinematography
Mushir Alam ... producer (as Mushir-Alam)
Mohammad Riaz ... producer (as Mushir-Alam)




Related torrents

Torrent NameAddedSizeSeedLeechHealth
1 Year+ - in Movies1.53 GB00
1 Year+ - in Movies1.2 GB00
1 Year+ - in Movies1.37 GB18
1 Year+ - in Movies848.74 MB00
1 Year+ - in Movies601.68 MB00

Comments (0 Comments)




Please login or create a FREE account to post comments

Latest Searches

| rhonda season 1 | Anal Pleasure For Her | books of 1 and 2 chronicles | Brahmotsavam 720p hindi | bailey brooke skyla | Boss 2 New Movie | first day out t grizzley | wwe raw 2017 26 06 | Suicide silence l | dude looks like a lady lyrics |