Quick Browse
Movies
TV shows
Music
Games
Applications
Anime
Other
Facebook
Advertising

Friends
Torrent Download
Movie4u
1337x.to
Torrent Downloads




Verified torrent Apollo 18 2011 R5 LiNE XviD - MiSTERE


    Seeders : 1      Leechers : 1
Hash :EEFC49121E98FC2299DA8C1F04FF3D8CF42651FA
Added :1 Year+ by memory100Verified torrent uploader in Movies
Size :1.4 GB
Stream :WATCH ONLINE @ Movie4u


Apollo 18 2011 R5 LiNE XviD - MiSTERE
Free and Fast Download with Usenet 300GB+ free







Trackers List

Tracker NameLast CheckStatusSeedersLeechers




Torrent File Content (8 files)


Apollo 18 2011 R5 LiNE XviD - MiSTERE
     Apollo 18 2011 R5 LiNE XviD - MiSTERE.avi -
1.37 GB

     Apollo 18 2011 R5 LiNE XviD - MiSTERE.nfo -
2.31 KB

     HDSceneRG.txt -
115 bytes

     Torrent downloaded from Demonoid.me.txt -
46 bytes

     Torrent downloaded from Suprnova.me.txt -
42 bytes

     att-networks.com.txt -
39 bytes

     sample.avi -
29.63 MB

     sceneunderground.org.txt -
77 bytes



Description



http://img805.imageshack.us/img805/9427/apollo18.jpg

[code]
Apollo 18 2011 R5 LiNE XviD - MiSTERE

http://www.imdb.com/title/tt1772240/

Video
ID : 0
Format : MPEG-4 Visual
Format profile : Advanced [email protected]
Format settings, BVOP : 2
Format settings, QPel : No
Format settings, GMC : No warppoints
Format settings, Matrix : Default (H.263)
Muxing mode : Packed bitstream
Codec ID : XVID
Codec ID/Hint : XviD
Duration : 1h 23mn
Bit rate : 2 221 Kbps
Width : 720 pixels
Height : 356 pixels
Display aspect ratio : 2.022
Frame rate : 25.000 fps
Color space : YUV
Chroma subsampling : 4:2:0
Bit depth : 8 bits
Scan type : Progressive
Compression mode : Lossy
Bits/(Pixel*Frame) : 0.347
Stream size : 1.29 GiB (94%)
Writing library : XviD 64

Audio
ID : 1
Format : MPEG Audio
Format version : Version 1
Format profile : Layer 3
Mode : Joint stereo
Mode extension : MS Stereo
Codec ID : 55
Codec ID/Hint : MP3
Duration : 1h 23mn
Bit rate mode : Constant
Bit rate : 128 Kbps
Channel(s) : 2 channels
Sampling rate : 44.1 KHz
Compression mode : Lossy
Stream size : 76.1 MiB (5%)
Alignment : Split accross interleaves
Interleave, duration : 40 ms (1.00 video frame)



Cropped Resized Sharpen and tweaked RGB
AR changes constanly,
supposed to be that way so it is
[/code]
Screens:
http://img534.imageshack.us/img534/1555/65598560.png

http://img713.imageshack.us/img713/3378/90014958.png

http://img525.imageshack.us/img525/7372/67465616.png

http://img521.imageshack.us/img521/6783/19508322.png

Related torrents

Torrent NameAddedSizeSeedLeechHealth
1 Year+ - in Movies1.4 GB13
1 Year+ - in Movies1.4 GB02
1 Year+ - in Movies1.4 GB04
1 Year+ - in Movies1.4 GB184
Verified torrent
1 Year+ - in Movies1.4 GB17

Comments (0 Comments)




Please login or create a FREE account to post comments

Latest Searches

| ableton live suite 9 1 9 x64 | H I M E S god complex | cross ange 10 vostfr hd | dance music 2016 new songs | Hallmark the christmas parade 2014 | sully subbed italian | a g berri | king cobra hdrip | Kama Sutra A Tale of Love | ted 2012 bluray 720p thedonny123 mp4 mp4 |