Quick Browse
Movies
TV shows
Music
Games
Applications
Anime
Other
Facebook
Advertising

Friends
Torrent Download
Movie4u
1337x.to
Torrent Downloads




Verified torrent Apollo 18 2011 R5 LiNE XviD - VISUALiSE


    Seeders : 1      Leechers : 0
Hash :F6AA6EC6B85BB4E7EB6E10028DC9B0672B55A3D1
Added :1 Year+ by memory100Verified torrent uploader in Movies
Size :955.96 MB
Stream :WATCH ONLINE @ Movie4u


Apollo 18 2011 R5 LiNE XviD - VISUALiSE
Free and Fast Download with Usenet 300GB+ free







Trackers List

Tracker NameLast CheckStatusSeedersLeechers




Torrent File Content (7 files)


Apollo 18 2011 R5 LiNE XviD - VISUALiSE
     Apollo 18 2011 R5 LiNE XviD - VISUALiSE.avi -
955.96 MB

     Apollo 18 2011 R5 LiNE XviD - VISUALiSE.nfo -
3.55 KB

     HDSceneRG.txt -
115 bytes

     Torrent downloaded from Demonoid.me.txt -
46 bytes

     Torrent downloaded from Suprnova.me.txt -
42 bytes

     att-networks.com.txt -
39 bytes

     sceneunderground.org.txt -
77 bytes



Description



http://img805.imageshack.us/img805/9427/apollo18.jpg

[code]
Title: Apollo 18 2011 R5 LiNE XviD - VISUALiSE
Format: Xvid
Language: English
Subtitles: No
Imdb: http://www.imdb.com/title/tt1772240/

Plot:
Decades-old found footage from NASA's abandoned Apollo 18 mission,
where two American astronauts were sent on a secret expedition,
reveals the reason the U.S. has never returned to the moon.

Sources:
Video: Russians - Many Thanks
Audio: MiSTERE - Many Thanks

Release Notes:
Thanks to the russians for DVD9 and big thanks
to MiSTERE for the FULL LiNE
Ripped video and ran sum filters and then
muxed audio to encode
enjoy.


Info:
Video
ID : 0
Format : MPEG-4 Visual
Format profile : Advanced [email protected]
Format settings, BVOP : 2
Format settings, QPel : No
Format settings, GMC : No warppoints
Format settings, Matrix : Default (H.263)
Codec ID : XVID
Codec ID/Hint : XviD
Duration : 1h 23mn
Bit rate : 1 470 Kbps
Width : 720 pixels
Height : 356 pixels
Display aspect ratio : 2.022
Frame rate : 25.000 fps
Color space : YUV
Chroma subsampling : 4:2:0
Bit depth : 8 bits
Scan type : Progressive
Compression mode : Lossy
Bits/(Pixel*Frame) : 0.229
Stream size : 874 MiB (91%)
Writing library : XviD 63

Audio
ID : 1
Format : MPEG Audio
Format version : Version 1
Format profile : Layer 3
Mode : Joint stereo
Mode extension : MS Stereo
Codec ID : 55
Codec ID/Hint : MP3
Duration : 1h 23mn
Bit rate mode : Constant
Bit rate : 128 Kbps
Channel(s) : 2 channels
Sampling rate : 44.1 KHz
Compression mode : Lossy
Stream size : 76.1 MiB (8%)
Alignment : Aligned on interleaves
Interleave, duration : 40 ms (1.00 video frame)
Writing library : LAME3.98r
Encoding settings : -m j -V 4 -q 2 -lowpass 17 -b 128
[/code]
Screens:
http://img405.imageshack.us/img405/239/27529142.png

http://img5.imageshack.us/img5/4893/35734353.png

http://img845.imageshack.us/img845/995/38802361.png

http://img85.imageshack.us/img85/2726/77446063.png

Related torrents

Torrent NameAddedSizeSeedLeechHealth
1 Year+ - in Movies955.96 MB02
1 Year+ - in Movies955.96 MB15
1 Year+ - in Movies955.96 MB01
1 Year+ - in Movies955.96 MB1143
1 Year+ - in Movies955.96 MB116

Comments (0 Comments)




Please login or create a FREE account to post comments

Latest Searches

| DobleMoral | Megan Rain Chick Gets Interracial Sex MP4 | SOMETHING IN THE WAY YOU MOVE ELLIE GOULDING | Winchester 73 1950 | gayle storm | all o ask | J pick up the phone | sKits k | the chainsmokers selfie official video | VA Now Thats What I christmas |